<?xml version="1.0" standalone="no"?>
<!DOCTYPE svg PUBLIC "-//W3C//DTD SVG 1.1//EN" "http://www.w3.org/Graphics/SVG/1.1/DTD/svg11.dtd" >
<svg xmlns="http://www.w3.org/2000/svg">
<defs>
  <font id="rettyfont" horiz-adv-x="1000">
    <font-face font-family="rettyfont"
      units-per-em="1000" ascent="1000"
      descent="0" />
    <missing-glyph horiz-adv-x="0" />
    <glyph glyph-name="add_bold"
      unicode="&#xF101;"
      horiz-adv-x="1000" d="M853.5416666666666 562.5H562.5V853.5416666666667C562.5 888.125 534.5833333333333 916.0416666666669 500 916.0416666666669S437.5 888.125 437.5 853.5416666666667V562.5H146.4583333333333C111.875 562.5 83.9583333333333 534.5833333333334 83.9583333333333 500S111.875 437.5 146.4583333333333 437.5H437.5V146.4583333333334C437.5 111.8750000000001 465.4166666666666 83.9583333333334 500 83.9583333333334S562.5 111.8750000000001 562.5 146.4583333333334V437.5H853.5416666666666C888.1249999999999 437.5 916.0416666666666 465.4166666666667 916.0416666666666 500S888.1249999999999 562.5 853.5416666666666 562.5z" />
    <glyph glyph-name="add_bold-1"
      unicode="&#x61;&#x64;&#x64;&#x5F;&#x62;&#x6F;&#x6C;&#x64;"
      horiz-adv-x="1000" d="M853.5416666666666 562.5H562.5V853.5416666666667C562.5 888.125 534.5833333333333 916.0416666666669 500 916.0416666666669S437.5 888.125 437.5 853.5416666666667V562.5H146.4583333333333C111.875 562.5 83.9583333333333 534.5833333333334 83.9583333333333 500S111.875 437.5 146.4583333333333 437.5H437.5V146.4583333333334C437.5 111.8750000000001 465.4166666666666 83.9583333333334 500 83.9583333333334S562.5 111.8750000000001 562.5 146.4583333333334V437.5H853.5416666666666C888.1249999999999 437.5 916.0416666666666 465.4166666666667 916.0416666666666 500S888.1249999999999 562.5 853.5416666666666 562.5z" />
    <glyph glyph-name="add"
      unicode="&#xF102;"
      horiz-adv-x="1000" d="M864.5833333333333 541.6666666666667H541.6666666666666V864.5833333333334C541.6666666666666 887.5 522.9166666666666 906.25 500 906.25S458.3333333333333 887.5 458.3333333333333 864.5833333333334V541.6666666666667H135.4166666666667C112.5 541.6666666666667 93.75 522.9166666666667 93.75 500S112.5 458.3333333333334 135.4166666666667 458.3333333333334H458.3333333333333V135.4166666666668C458.3333333333333 112.5 477.0833333333333 93.75 500 93.75S541.6666666666666 112.5 541.6666666666666 135.4166666666668V458.3333333333334H864.5833333333333C887.5 458.3333333333334 906.25 477.0833333333334 906.25 500S887.5 541.6666666666667 864.5833333333333 541.6666666666667z" />
    <glyph glyph-name="add-1"
      unicode="&#x61;&#x64;&#x64;"
      horiz-adv-x="1000" d="M864.5833333333333 541.6666666666667H541.6666666666666V864.5833333333334C541.6666666666666 887.5 522.9166666666666 906.25 500 906.25S458.3333333333333 887.5 458.3333333333333 864.5833333333334V541.6666666666667H135.4166666666667C112.5 541.6666666666667 93.75 522.9166666666667 93.75 500S112.5 458.3333333333334 135.4166666666667 458.3333333333334H458.3333333333333V135.4166666666668C458.3333333333333 112.5 477.0833333333333 93.75 500 93.75S541.6666666666666 112.5 541.6666666666666 135.4166666666668V458.3333333333334H864.5833333333333C887.5 458.3333333333334 906.25 477.0833333333334 906.25 500S887.5 541.6666666666667 864.5833333333333 541.6666666666667z" />
    <glyph glyph-name="area_filter_outline"
      unicode="&#xF103;"
      horiz-adv-x="1000" d="M500 423.9583333333334C423.125 423.9583333333334 360.625 486.4583333333334 360.625 563.3333333333335S423.125 702.7083333333335 500 702.7083333333335S639.375 640.2083333333335 639.375 563.3333333333335S576.875 423.9583333333334 500 423.9583333333334zM500 640.2083333333335C457.7083333333333 640.2083333333335 423.125 605.6250000000001 423.125 563.3333333333335S457.7083333333333 486.4583333333334 500 486.4583333333334S576.875 521.0416666666667 576.875 563.3333333333335S542.2916666666666 640.2083333333335 500 640.2083333333335zM500 72.0833333333334C493.5416666666667 72.0833333333334 487.0833333333333 73.9583333333335 481.6666666666667 77.9166666666667C474.7916666666667 82.9166666666669 312.9166666666667 200.2083333333334 229.1666666666667 291.4583333333334C156.6666666666667 362.9166666666668 116.25 459.7916666666667 116.25 563.125C116.25 775 288.5416666666667 947.0833333333334 500.0000000000001 947.0833333333334S883.75 775 883.75 563.3333333333333C883.75 460 843.3333333333334 363.125 769.7916666666666 290.4166666666667C687.2916666666666 200.2083333333334 525.2083333333334 82.9166666666666 518.3333333333334 77.9166666666666C512.9166666666666 73.9583333333334 506.4583333333334 72.0833333333333 500.0000000000001 72.0833333333333zM500 884.5833333333334C322.9166666666667 884.5833333333334 178.75 740.4166666666667 178.75 563.3333333333333C178.75 476.875 212.7083333333334 395.625 274.1666666666667 335C338.5416666666667 264.7916666666668 454.9999999999999 175.625 499.7916666666667 142.0833333333334C544.5833333333333 175.4166666666668 661.0416666666667 264.375 724.375 333.75C787.0833333333333 395.625 820.8333333333334 476.875 820.8333333333334 563.3333333333333C820.8333333333334 740.4166666666667 676.6666666666667 884.5833333333333 499.5833333333334 884.5833333333333z" />
    <glyph glyph-name="area_filter_outline-1"
      unicode="&#x61;&#x72;&#x65;&#x61;&#x5F;&#x66;&#x69;&#x6C;&#x74;&#x65;&#x72;&#x5F;&#x6F;&#x75;&#x74;&#x6C;&#x69;&#x6E;&#x65;"
      horiz-adv-x="1000" d="M500 423.9583333333334C423.125 423.9583333333334 360.625 486.4583333333334 360.625 563.3333333333335S423.125 702.7083333333335 500 702.7083333333335S639.375 640.2083333333335 639.375 563.3333333333335S576.875 423.9583333333334 500 423.9583333333334zM500 640.2083333333335C457.7083333333333 640.2083333333335 423.125 605.6250000000001 423.125 563.3333333333335S457.7083333333333 486.4583333333334 500 486.4583333333334S576.875 521.0416666666667 576.875 563.3333333333335S542.2916666666666 640.2083333333335 500 640.2083333333335zM500 72.0833333333334C493.5416666666667 72.0833333333334 487.0833333333333 73.9583333333335 481.6666666666667 77.9166666666667C474.7916666666667 82.9166666666669 312.9166666666667 200.2083333333334 229.1666666666667 291.4583333333334C156.6666666666667 362.9166666666668 116.25 459.7916666666667 116.25 563.125C116.25 775 288.5416666666667 947.0833333333334 500.0000000000001 947.0833333333334S883.75 775 883.75 563.3333333333333C883.75 460 843.3333333333334 363.125 769.7916666666666 290.4166666666667C687.2916666666666 200.2083333333334 525.2083333333334 82.9166666666666 518.3333333333334 77.9166666666666C512.9166666666666 73.9583333333334 506.4583333333334 72.0833333333333 500.0000000000001 72.0833333333333zM500 884.5833333333334C322.9166666666667 884.5833333333334 178.75 740.4166666666667 178.75 563.3333333333333C178.75 476.875 212.7083333333334 395.625 274.1666666666667 335C338.5416666666667 264.7916666666668 454.9999999999999 175.625 499.7916666666667 142.0833333333334C544.5833333333333 175.4166666666668 661.0416666666667 264.375 724.375 333.75C787.0833333333333 395.625 820.8333333333334 476.875 820.8333333333334 563.3333333333333C820.8333333333334 740.4166666666667 676.6666666666667 884.5833333333333 499.5833333333334 884.5833333333333z" />
    <glyph glyph-name="area_filter"
      unicode="&#xF104;"
      horiz-adv-x="1000" d="M500 937.5C288.5416666666667 937.5 116.25 765.4166666666667 116.25 553.75C116.25 450.4166666666666 156.6666666666666 353.5416666666667 229.1666666666667 282.0833333333334C312.9166666666667 190.625 474.7916666666666 73.3333333333333 481.6666666666666 68.5416666666667C487.0833333333333 64.5833333333334 493.5416666666666 62.7083333333334 499.9999999999999 62.7083333333334S512.9166666666666 64.5833333333334 518.3333333333333 68.5416666666667C525.2083333333331 73.5416666666667 687.0833333333333 190.8333333333333 769.7916666666665 281.0416666666667C843.3333333333333 353.75 883.7499999999999 450.6249999999999 883.7499999999999 553.9583333333333C883.7499999999999 765.4166666666666 711.6666666666665 937.7083333333331 499.9999999999998 937.7083333333331zM360.625 553.75C360.625 630.625 423.125 693.125 500 693.125S639.375 630.625 639.375 553.75S576.875 414.375 500 414.375S360.625 476.875 360.625 553.75zM423.125 553.75A76.875 76.875 0 0 1 576.875 553.75A76.875 76.875 0 0 1 423.125 553.75" />
    <glyph glyph-name="area_filter-1"
      unicode="&#x61;&#x72;&#x65;&#x61;&#x5F;&#x66;&#x69;&#x6C;&#x74;&#x65;&#x72;"
      horiz-adv-x="1000" d="M500 937.5C288.5416666666667 937.5 116.25 765.4166666666667 116.25 553.75C116.25 450.4166666666666 156.6666666666666 353.5416666666667 229.1666666666667 282.0833333333334C312.9166666666667 190.625 474.7916666666666 73.3333333333333 481.6666666666666 68.5416666666667C487.0833333333333 64.5833333333334 493.5416666666666 62.7083333333334 499.9999999999999 62.7083333333334S512.9166666666666 64.5833333333334 518.3333333333333 68.5416666666667C525.2083333333331 73.5416666666667 687.0833333333333 190.8333333333333 769.7916666666665 281.0416666666667C843.3333333333333 353.75 883.7499999999999 450.6249999999999 883.7499999999999 553.9583333333333C883.7499999999999 765.4166666666666 711.6666666666665 937.7083333333331 499.9999999999998 937.7083333333331zM360.625 553.75C360.625 630.625 423.125 693.125 500 693.125S639.375 630.625 639.375 553.75S576.875 414.375 500 414.375S360.625 476.875 360.625 553.75zM423.125 553.75A76.875 76.875 0 0 1 576.875 553.75A76.875 76.875 0 0 1 423.125 553.75" />
    <glyph glyph-name="arrow_bold"
      unicode="&#xF105;"
      horiz-adv-x="1000" d="M354.7916666666667 105.625C338.75 105.625 322.7083333333334 111.6666666666667 310.625 123.9583333333335C286.25 148.3333333333335 286.25 187.9166666666668 310.625 212.2916666666669L598.3333333333333 500.0000000000002L310.625 787.7083333333335C286.25 812.0833333333335 286.25 851.6666666666669 310.625 876.0416666666669S374.5833333333333 900.4166666666669 398.9583333333333 876.0416666666669L730.8333333333333 544.1666666666669C742.5 532.5000000000002 749.1666666666666 516.4583333333335 749.1666666666666 500.0000000000002S742.5 467.5000000000002 730.8333333333333 455.8333333333335L398.9583333333333 123.9583333333335C386.6666666666667 111.6666666666667 370.8333333333333 105.625 354.7916666666666 105.625z" />
    <glyph glyph-name="arrow_bold-1"
      unicode="&#x61;&#x72;&#x72;&#x6F;&#x77;&#x5F;&#x62;&#x6F;&#x6C;&#x64;"
      horiz-adv-x="1000" d="M354.7916666666667 105.625C338.75 105.625 322.7083333333334 111.6666666666667 310.625 123.9583333333335C286.25 148.3333333333335 286.25 187.9166666666668 310.625 212.2916666666669L598.3333333333333 500.0000000000002L310.625 787.7083333333335C286.25 812.0833333333335 286.25 851.6666666666669 310.625 876.0416666666669S374.5833333333333 900.4166666666669 398.9583333333333 876.0416666666669L730.8333333333333 544.1666666666669C742.5 532.5000000000002 749.1666666666666 516.4583333333335 749.1666666666666 500.0000000000002S742.5 467.5000000000002 730.8333333333333 455.8333333333335L398.9583333333333 123.9583333333335C386.6666666666667 111.6666666666667 370.8333333333333 105.625 354.7916666666666 105.625z" />
    <glyph glyph-name="arrow"
      unicode="&#xF106;"
      horiz-adv-x="1000" d="M349.5833333333333 116.0416666666668C338.9583333333333 116.0416666666668 328.3333333333334 120.2083333333335 320.2083333333333 128.3333333333335C303.9583333333334 144.5833333333335 303.9583333333334 171.0416666666668 320.2083333333333 187.2916666666668L632.9166666666666 500L320.2083333333334 812.7083333333334C303.9583333333334 828.9583333333333 303.9583333333334 855.4166666666666 320.2083333333334 871.6666666666666S362.9166666666667 887.9166666666666 379.1666666666667 871.6666666666666L721.4583333333334 529.375C737.7083333333334 513.125 737.7083333333334 486.6666666666666 721.4583333333334 470.4166666666666L379.1666666666667 128.125C371.0416666666667 120 360.4166666666668 115.8333333333333 349.7916666666667 115.8333333333333z" />
    <glyph glyph-name="arrow-1"
      unicode="&#x61;&#x72;&#x72;&#x6F;&#x77;"
      horiz-adv-x="1000" d="M349.5833333333333 116.0416666666668C338.9583333333333 116.0416666666668 328.3333333333334 120.2083333333335 320.2083333333333 128.3333333333335C303.9583333333334 144.5833333333335 303.9583333333334 171.0416666666668 320.2083333333333 187.2916666666668L632.9166666666666 500L320.2083333333334 812.7083333333334C303.9583333333334 828.9583333333333 303.9583333333334 855.4166666666666 320.2083333333334 871.6666666666666S362.9166666666667 887.9166666666666 379.1666666666667 871.6666666666666L721.4583333333334 529.375C737.7083333333334 513.125 737.7083333333334 486.6666666666666 721.4583333333334 470.4166666666666L379.1666666666667 128.125C371.0416666666667 120 360.4166666666668 115.8333333333333 349.7916666666667 115.8333333333333z" />
    <glyph glyph-name="browsing_history_outline"
      unicode="&#xF107;"
      horiz-adv-x="1000" d="M500 843.75C689.5833333333334 843.75 843.75 689.5833333333334 843.75 500S689.5833333333334 156.25 500 156.25S156.25 310.4166666666667 156.25 500S310.4166666666667 843.75 500 843.75M500 906.25C275.625 906.25 93.75 724.375 93.75 500S275.625 93.75 500 93.75S906.25 275.6250000000001 906.25 500S724.3749999999999 906.25 500 906.25zM668.125 410.2083333333334H500C482.7083333333333 410.2083333333334 468.75 424.1666666666668 468.75 441.4583333333334V734.1666666666667C468.75 751.4583333333334 482.7083333333333 765.4166666666667 500 765.4166666666667S531.25 751.4583333333334 531.25 734.1666666666667V472.7083333333334H668.125C685.4166666666666 472.7083333333334 699.375 458.75 699.375 441.4583333333334S685.4166666666666 410.2083333333334 668.125 410.2083333333334z" />
    <glyph glyph-name="browsing_history_outline-1"
      unicode="&#x62;&#x72;&#x6F;&#x77;&#x73;&#x69;&#x6E;&#x67;&#x5F;&#x68;&#x69;&#x73;&#x74;&#x6F;&#x72;&#x79;&#x5F;&#x6F;&#x75;&#x74;&#x6C;&#x69;&#x6E;&#x65;"
      horiz-adv-x="1000" d="M500 843.75C689.5833333333334 843.75 843.75 689.5833333333334 843.75 500S689.5833333333334 156.25 500 156.25S156.25 310.4166666666667 156.25 500S310.4166666666667 843.75 500 843.75M500 906.25C275.625 906.25 93.75 724.375 93.75 500S275.625 93.75 500 93.75S906.25 275.6250000000001 906.25 500S724.3749999999999 906.25 500 906.25zM668.125 410.2083333333334H500C482.7083333333333 410.2083333333334 468.75 424.1666666666668 468.75 441.4583333333334V734.1666666666667C468.75 751.4583333333334 482.7083333333333 765.4166666666667 500 765.4166666666667S531.25 751.4583333333334 531.25 734.1666666666667V472.7083333333334H668.125C685.4166666666666 472.7083333333334 699.375 458.75 699.375 441.4583333333334S685.4166666666666 410.2083333333334 668.125 410.2083333333334z" />
    <glyph glyph-name="browsing_history"
      unicode="&#xF108;"
      horiz-adv-x="1000" d="M500 906.25C275.625 906.25 93.75 724.375 93.75 500S275.625 93.75 500 93.75S906.25 275.6250000000001 906.25 500S724.3749999999999 906.25 500 906.25zM668.125 410.2083333333334H500C482.7083333333333 410.2083333333334 468.75 424.1666666666668 468.75 441.4583333333334V734.1666666666667C468.75 751.4583333333334 482.7083333333333 765.4166666666667 500 765.4166666666667S531.25 751.4583333333334 531.25 734.1666666666667V472.7083333333334H668.125C685.4166666666666 472.7083333333334 699.375 458.75 699.375 441.4583333333334S685.4166666666666 410.2083333333334 668.125 410.2083333333334z" />
    <glyph glyph-name="browsing_history-1"
      unicode="&#x62;&#x72;&#x6F;&#x77;&#x73;&#x69;&#x6E;&#x67;&#x5F;&#x68;&#x69;&#x73;&#x74;&#x6F;&#x72;&#x79;"
      horiz-adv-x="1000" d="M500 906.25C275.625 906.25 93.75 724.375 93.75 500S275.625 93.75 500 93.75S906.25 275.6250000000001 906.25 500S724.3749999999999 906.25 500 906.25zM668.125 410.2083333333334H500C482.7083333333333 410.2083333333334 468.75 424.1666666666668 468.75 441.4583333333334V734.1666666666667C468.75 751.4583333333334 482.7083333333333 765.4166666666667 500 765.4166666666667S531.25 751.4583333333334 531.25 734.1666666666667V472.7083333333334H668.125C685.4166666666666 472.7083333333334 699.375 458.75 699.375 441.4583333333334S685.4166666666666 410.2083333333334 668.125 410.2083333333334z" />
    <glyph glyph-name="budget_dinner_outline"
      unicode="&#xF109;"
      horiz-adv-x="1000" d="M461.875 157.5000000000001C326.6666666666667 157.5000000000001 204.5833333333334 232.5000000000001 143.3333333333334 352.9166666666669C137.2916666666667 365.0000000000001 139.5833333333334 379.5833333333335 149.1666666666667 389.1666666666668S173.3333333333334 401.0416666666668 185.4166666666667 395.0000000000001C226.2500000000001 374.1666666666668 270.4166666666667 363.7500000000001 316.6666666666667 363.7500000000001C476.6666666666667 363.7500000000001 606.875 493.9583333333334 606.875 653.9583333333335C606.875 703.7500000000001 593.9583333333334 752.9166666666667 569.7916666666666 796.2500000000001C563.125 808.1250000000001 564.7916666666667 822.7083333333335 573.9583333333334 832.7083333333335S597.7083333333334 845.6250000000001 610 840.0000000000001C737.0833333333334 782.0833333333335 819.1666666666666 654.3750000000001 819.1666666666666 514.7916666666667C819.1666666666666 317.9166666666669 658.9583333333333 157.7083333333335 462.0833333333333 157.7083333333335zM252.7083333333334 306.8750000000001C307.0833333333334 251.8750000000001 381.6666666666668 220.0000000000001 461.875 220.0000000000001C624.375 220.0000000000001 756.4583333333334 352.0833333333334 756.4583333333334 514.5833333333335C756.4583333333334 598.5416666666667 720.4166666666667 677.0833333333335 660.4166666666667 732.0833333333334C666.25 706.4583333333334 669.1666666666667 680.2083333333334 669.1666666666667 653.75C669.1666666666667 459.3750000000001 511.0416666666667 301.0416666666668 316.4583333333335 301.0416666666668C294.7916666666668 301.0416666666668 273.3333333333335 302.9166666666669 252.5000000000001 306.8750000000001z" />
    <glyph glyph-name="budget_dinner_outline-1"
      unicode="&#x62;&#x75;&#x64;&#x67;&#x65;&#x74;&#x5F;&#x64;&#x69;&#x6E;&#x6E;&#x65;&#x72;&#x5F;&#x6F;&#x75;&#x74;&#x6C;&#x69;&#x6E;&#x65;"
      horiz-adv-x="1000" d="M461.875 157.5000000000001C326.6666666666667 157.5000000000001 204.5833333333334 232.5000000000001 143.3333333333334 352.9166666666669C137.2916666666667 365.0000000000001 139.5833333333334 379.5833333333335 149.1666666666667 389.1666666666668S173.3333333333334 401.0416666666668 185.4166666666667 395.0000000000001C226.2500000000001 374.1666666666668 270.4166666666667 363.7500000000001 316.6666666666667 363.7500000000001C476.6666666666667 363.7500000000001 606.875 493.9583333333334 606.875 653.9583333333335C606.875 703.7500000000001 593.9583333333334 752.9166666666667 569.7916666666666 796.2500000000001C563.125 808.1250000000001 564.7916666666667 822.7083333333335 573.9583333333334 832.7083333333335S597.7083333333334 845.6250000000001 610 840.0000000000001C737.0833333333334 782.0833333333335 819.1666666666666 654.3750000000001 819.1666666666666 514.7916666666667C819.1666666666666 317.9166666666669 658.9583333333333 157.7083333333335 462.0833333333333 157.7083333333335zM252.7083333333334 306.8750000000001C307.0833333333334 251.8750000000001 381.6666666666668 220.0000000000001 461.875 220.0000000000001C624.375 220.0000000000001 756.4583333333334 352.0833333333334 756.4583333333334 514.5833333333335C756.4583333333334 598.5416666666667 720.4166666666667 677.0833333333335 660.4166666666667 732.0833333333334C666.25 706.4583333333334 669.1666666666667 680.2083333333334 669.1666666666667 653.75C669.1666666666667 459.3750000000001 511.0416666666667 301.0416666666668 316.4583333333335 301.0416666666668C294.7916666666668 301.0416666666668 273.3333333333335 302.9166666666669 252.5000000000001 306.8750000000001z" />
    <glyph glyph-name="budget_dinner"
      unicode="&#xF10A;"
      horiz-adv-x="1000" d="M609.7916666666666 839.7916666666666C597.5 845.4166666666667 582.9166666666666 842.5 573.75 832.5S562.9166666666666 807.7083333333334 569.5833333333333 796.0416666666666C593.9583333333333 752.9166666666666 606.6666666666666 703.75 606.6666666666666 653.75C606.6666666666666 493.75 476.4583333333333 363.5416666666668 316.4583333333333 363.5416666666668C270.2083333333333 363.5416666666668 226.0416666666667 374.1666666666668 185.2083333333334 394.7916666666668C173.125 400.8333333333334 158.5416666666667 398.5416666666667 148.9583333333334 388.9583333333334S137.0833333333333 364.7916666666667 143.125 352.7083333333334C204.375 232.0833333333334 326.4583333333334 157.2916666666666 461.6666666666666 157.2916666666666C658.5416666666666 157.2916666666666 818.7499999999999 317.4999999999999 818.7499999999999 514.375C818.7499999999999 653.9583333333333 736.6666666666666 781.6666666666666 609.5833333333333 839.5833333333333z" />
    <glyph glyph-name="budget_dinner-1"
      unicode="&#x62;&#x75;&#x64;&#x67;&#x65;&#x74;&#x5F;&#x64;&#x69;&#x6E;&#x6E;&#x65;&#x72;"
      horiz-adv-x="1000" d="M609.7916666666666 839.7916666666666C597.5 845.4166666666667 582.9166666666666 842.5 573.75 832.5S562.9166666666666 807.7083333333334 569.5833333333333 796.0416666666666C593.9583333333333 752.9166666666666 606.6666666666666 703.75 606.6666666666666 653.75C606.6666666666666 493.75 476.4583333333333 363.5416666666668 316.4583333333333 363.5416666666668C270.2083333333333 363.5416666666668 226.0416666666667 374.1666666666668 185.2083333333334 394.7916666666668C173.125 400.8333333333334 158.5416666666667 398.5416666666667 148.9583333333334 388.9583333333334S137.0833333333333 364.7916666666667 143.125 352.7083333333334C204.375 232.0833333333334 326.4583333333334 157.2916666666666 461.6666666666666 157.2916666666666C658.5416666666666 157.2916666666666 818.7499999999999 317.4999999999999 818.7499999999999 514.375C818.7499999999999 653.9583333333333 736.6666666666666 781.6666666666666 609.5833333333333 839.5833333333333z" />
    <glyph glyph-name="budget_lunch_outline"
      unicode="&#xF10B;"
      horiz-adv-x="1000" d="M500 676.0416666666667C597.0833333333333 676.0416666666667 676.0416666666667 597.0833333333334 676.0416666666667 500S597.0833333333334 323.9583333333333 500.0000000000001 323.9583333333333S323.9583333333335 402.9166666666667 323.9583333333335 499.9999999999999S402.9166666666668 676.0416666666665 500.0000000000001 676.0416666666665M500.0000000000001 738.5416666666665C368.125 738.5416666666665 261.4583333333335 631.6666666666666 261.4583333333335 499.9999999999999S368.3333333333334 261.4583333333334 500.0000000000001 261.4583333333334S738.5416666666666 368.3333333333333 738.5416666666666 499.9999999999999S631.6666666666667 738.5416666666665 500.0000000000001 738.5416666666665zM185.625 468.75H122.9166666666667C105.625 468.75 91.6666666666667 482.7083333333334 91.6666666666667 500S105.625 531.25 122.9166666666667 531.25H185.625C202.9166666666667 531.25 216.875 517.2916666666667 216.875 500S202.9166666666667 468.75 185.625 468.75zM876.875 468.75H814.1666666666667C796.8750000000001 468.75 782.9166666666667 482.7083333333334 782.9166666666667 500S796.8750000000001 531.25 814.1666666666667 531.25H876.875C894.1666666666666 531.25 908.125 517.2916666666667 908.125 500S894.1666666666666 468.75 876.875 468.75zM500 783.125C482.7083333333333 783.125 468.75 797.0833333333334 468.75 814.375V877.0833333333334C468.75 894.375 482.7083333333333 908.3333333333334 500 908.3333333333334S531.25 894.375 531.25 877.0833333333334V814.375C531.25 797.0833333333334 517.2916666666666 783.125 500 783.125zM500 91.875C482.7083333333333 91.875 468.75 105.8333333333334 468.75 123.125V185.8333333333333C468.75 203.1249999999999 482.7083333333333 217.0833333333333 500 217.0833333333333S531.25 203.1249999999999 531.25 185.8333333333333V123.125C531.25 105.8333333333334 517.2916666666666 91.875 500 91.875zM277.7083333333333 691.0416666666667C269.7916666666667 691.0416666666667 261.6666666666667 694.1666666666667 255.625 700.2083333333333L211.4583333333333 744.375C199.1666666666666 756.6666666666667 199.1666666666666 776.4583333333334 211.4583333333333 788.5416666666667S243.5416666666666 800.8333333333334 255.625 788.5416666666667L299.7916666666667 744.375C312.0833333333333 732.0833333333334 312.0833333333333 712.2916666666667 299.7916666666667 700.2083333333333C293.75 694.1666666666667 285.625 691.0416666666667 277.7083333333333 691.0416666666667zM766.4583333333333 202.2916666666668C758.5416666666665 202.2916666666668 750.4166666666665 205.4166666666668 744.3749999999999 211.4583333333334L700.2083333333333 255.625C687.9166666666665 267.9166666666668 687.9166666666665 287.7083333333333 700.2083333333333 299.7916666666665S732.2916666666666 312.0833333333333 744.3749999999999 299.7916666666665L788.5416666666665 255.625C800.8333333333333 243.3333333333333 800.8333333333333 223.5416666666666 788.5416666666665 211.4583333333334C782.4999999999999 205.4166666666668 774.3749999999999 202.2916666666668 766.4583333333331 202.2916666666668zM722.2916666666666 691.0416666666667C714.3749999999999 691.0416666666667 706.2499999999999 694.1666666666667 700.2083333333333 700.2083333333333C687.9166666666665 712.5 687.9166666666665 732.2916666666666 700.2083333333333 744.375L744.3749999999999 788.5416666666667C756.6666666666666 800.8333333333334 776.4583333333333 800.8333333333334 788.5416666666665 788.5416666666667S800.8333333333333 756.4583333333334 788.5416666666665 744.375L744.3749999999999 700.2083333333333C738.3333333333333 694.1666666666667 730.2083333333333 691.0416666666667 722.2916666666665 691.0416666666667zM233.5416666666667 202.2916666666668C225.625 202.2916666666668 217.5 205.4166666666668 211.4583333333334 211.4583333333334C199.1666666666667 223.7500000000001 199.1666666666667 243.5416666666667 211.4583333333334 255.625L255.625 299.7916666666665C267.9166666666667 312.0833333333333 287.7083333333333 312.0833333333333 299.7916666666667 299.7916666666665S312.0833333333333 267.7083333333333 299.7916666666667 255.625L255.625 211.4583333333334C249.5833333333333 205.4166666666668 241.4583333333333 202.2916666666668 233.5416666666667 202.2916666666668z" />
    <glyph glyph-name="budget_lunch_outline-1"
      unicode="&#x62;&#x75;&#x64;&#x67;&#x65;&#x74;&#x5F;&#x6C;&#x75;&#x6E;&#x63;&#x68;&#x5F;&#x6F;&#x75;&#x74;&#x6C;&#x69;&#x6E;&#x65;"
      horiz-adv-x="1000" d="M500 676.0416666666667C597.0833333333333 676.0416666666667 676.0416666666667 597.0833333333334 676.0416666666667 500S597.0833333333334 323.9583333333333 500.0000000000001 323.9583333333333S323.9583333333335 402.9166666666667 323.9583333333335 499.9999999999999S402.9166666666668 676.0416666666665 500.0000000000001 676.0416666666665M500.0000000000001 738.5416666666665C368.125 738.5416666666665 261.4583333333335 631.6666666666666 261.4583333333335 499.9999999999999S368.3333333333334 261.4583333333334 500.0000000000001 261.4583333333334S738.5416666666666 368.3333333333333 738.5416666666666 499.9999999999999S631.6666666666667 738.5416666666665 500.0000000000001 738.5416666666665zM185.625 468.75H122.9166666666667C105.625 468.75 91.6666666666667 482.7083333333334 91.6666666666667 500S105.625 531.25 122.9166666666667 531.25H185.625C202.9166666666667 531.25 216.875 517.2916666666667 216.875 500S202.9166666666667 468.75 185.625 468.75zM876.875 468.75H814.1666666666667C796.8750000000001 468.75 782.9166666666667 482.7083333333334 782.9166666666667 500S796.8750000000001 531.25 814.1666666666667 531.25H876.875C894.1666666666666 531.25 908.125 517.2916666666667 908.125 500S894.1666666666666 468.75 876.875 468.75zM500 783.125C482.7083333333333 783.125 468.75 797.0833333333334 468.75 814.375V877.0833333333334C468.75 894.375 482.7083333333333 908.3333333333334 500 908.3333333333334S531.25 894.375 531.25 877.0833333333334V814.375C531.25 797.0833333333334 517.2916666666666 783.125 500 783.125zM500 91.875C482.7083333333333 91.875 468.75 105.8333333333334 468.75 123.125V185.8333333333333C468.75 203.1249999999999 482.7083333333333 217.0833333333333 500 217.0833333333333S531.25 203.1249999999999 531.25 185.8333333333333V123.125C531.25 105.8333333333334 517.2916666666666 91.875 500 91.875zM277.7083333333333 691.0416666666667C269.7916666666667 691.0416666666667 261.6666666666667 694.1666666666667 255.625 700.2083333333333L211.4583333333333 744.375C199.1666666666666 756.6666666666667 199.1666666666666 776.4583333333334 211.4583333333333 788.5416666666667S243.5416666666666 800.8333333333334 255.625 788.5416666666667L299.7916666666667 744.375C312.0833333333333 732.0833333333334 312.0833333333333 712.2916666666667 299.7916666666667 700.2083333333333C293.75 694.1666666666667 285.625 691.0416666666667 277.7083333333333 691.0416666666667zM766.4583333333333 202.2916666666668C758.5416666666665 202.2916666666668 750.4166666666665 205.4166666666668 744.3749999999999 211.4583333333334L700.2083333333333 255.625C687.9166666666665 267.9166666666668 687.9166666666665 287.7083333333333 700.2083333333333 299.7916666666665S732.2916666666666 312.0833333333333 744.3749999999999 299.7916666666665L788.5416666666665 255.625C800.8333333333333 243.3333333333333 800.8333333333333 223.5416666666666 788.5416666666665 211.4583333333334C782.4999999999999 205.4166666666668 774.3749999999999 202.2916666666668 766.4583333333331 202.2916666666668zM722.2916666666666 691.0416666666667C714.3749999999999 691.0416666666667 706.2499999999999 694.1666666666667 700.2083333333333 700.2083333333333C687.9166666666665 712.5 687.9166666666665 732.2916666666666 700.2083333333333 744.375L744.3749999999999 788.5416666666667C756.6666666666666 800.8333333333334 776.4583333333333 800.8333333333334 788.5416666666665 788.5416666666667S800.8333333333333 756.4583333333334 788.5416666666665 744.375L744.3749999999999 700.2083333333333C738.3333333333333 694.1666666666667 730.2083333333333 691.0416666666667 722.2916666666665 691.0416666666667zM233.5416666666667 202.2916666666668C225.625 202.2916666666668 217.5 205.4166666666668 211.4583333333334 211.4583333333334C199.1666666666667 223.7500000000001 199.1666666666667 243.5416666666667 211.4583333333334 255.625L255.625 299.7916666666665C267.9166666666667 312.0833333333333 287.7083333333333 312.0833333333333 299.7916666666667 299.7916666666665S312.0833333333333 267.7083333333333 299.7916666666667 255.625L255.625 211.4583333333334C249.5833333333333 205.4166666666668 241.4583333333333 202.2916666666668 233.5416666666667 202.2916666666668z" />
    <glyph glyph-name="budget_lunch"
      unicode="&#xF10C;"
      horiz-adv-x="1000" d="M738.5416666666666 500C738.5416666666666 541.25 728.125 580 709.7916666666666 613.75C702.4999999999999 627.2916666666667 693.7499999999999 640 684.1666666666667 651.875C674.375 663.75 663.5416666666667 674.5833333333333 651.875 684.1666666666667C640 693.9583333333334 627.2916666666667 702.5 613.75 709.7916666666667S585.8333333333334 723.125 571.0416666666666 727.9166666666667C548.5416666666666 734.7916666666667 524.7916666666666 738.5416666666667 500 738.5416666666667S451.4583333333334 734.7916666666667 428.9583333333333 727.9166666666667C413.9583333333333 723.3333333333333 399.7916666666667 717.2916666666667 386.25 709.7916666666667C372.7083333333333 702.5 360 693.75 348.125 684.1666666666667C336.25 674.375 325.4166666666667 663.5416666666667 315.8333333333333 651.875C306.0416666666667 640 297.5 627.2916666666667 290.2083333333333 613.75C271.875 580 261.4583333333333 541.25 261.4583333333333 500C261.4583333333333 458.75 271.875 420 290.2083333333333 386.25C297.5 372.7083333333334 306.25 360 315.8333333333333 348.125C359.5833333333334 295.0000000000001 425.8333333333333 261.25 500 261.25S640.4166666666666 295 684.1666666666667 348.125C693.9583333333334 360.0000000000001 702.5000000000001 372.7083333333334 709.7916666666666 386.25C728.125 420 738.5416666666666 458.75 738.5416666666666 500zM185.625 468.75H122.9166666666667C105.625 468.75 91.6666666666667 482.7083333333334 91.6666666666667 500S105.625 531.25 122.9166666666667 531.25H185.625C202.9166666666667 531.25 216.875 517.2916666666667 216.875 500S202.9166666666667 468.75 185.625 468.75zM876.875 468.75H814.1666666666667C796.8750000000001 468.75 782.9166666666667 482.7083333333334 782.9166666666667 500S796.8750000000001 531.25 814.1666666666667 531.25H876.875C894.1666666666666 531.25 908.125 517.2916666666667 908.125 500S894.1666666666666 468.75 876.875 468.75zM500 783.125C482.7083333333333 783.125 468.75 797.0833333333334 468.75 814.375V877.0833333333334C468.75 894.375 482.7083333333333 908.3333333333334 500 908.3333333333334S531.25 894.375 531.25 877.0833333333334V814.375C531.25 797.0833333333334 517.2916666666666 783.125 500 783.125zM500 91.875C482.7083333333333 91.875 468.75 105.8333333333334 468.75 123.125V185.8333333333333C468.75 203.1249999999999 482.7083333333333 217.0833333333333 500 217.0833333333333S531.25 203.1249999999999 531.25 185.8333333333333V123.125C531.25 105.8333333333334 517.2916666666666 91.875 500 91.875zM277.7083333333333 691.0416666666667C269.7916666666667 691.0416666666667 261.6666666666667 694.1666666666667 255.625 700.2083333333333L211.4583333333333 744.375C199.1666666666666 756.6666666666667 199.1666666666666 776.4583333333334 211.4583333333333 788.5416666666667S243.5416666666666 800.8333333333334 255.625 788.5416666666667L299.7916666666667 744.375C312.0833333333333 732.0833333333334 312.0833333333333 712.2916666666667 299.7916666666667 700.2083333333333C293.75 694.1666666666667 285.625 691.0416666666667 277.7083333333333 691.0416666666667zM766.4583333333333 202.2916666666668C758.5416666666665 202.2916666666668 750.4166666666665 205.4166666666668 744.3749999999999 211.4583333333334L700.2083333333333 255.625C687.9166666666665 267.9166666666668 687.9166666666665 287.7083333333333 700.2083333333333 299.7916666666665S732.2916666666666 312.0833333333333 744.3749999999999 299.7916666666665L788.5416666666665 255.625C800.8333333333333 243.3333333333333 800.8333333333333 223.5416666666666 788.5416666666665 211.4583333333334C782.4999999999999 205.4166666666668 774.3749999999999 202.2916666666668 766.4583333333331 202.2916666666668zM722.2916666666666 691.0416666666667C714.3749999999999 691.0416666666667 706.2499999999999 694.1666666666667 700.2083333333333 700.2083333333333C687.9166666666665 712.5 687.9166666666665 732.2916666666666 700.2083333333333 744.375L744.3749999999999 788.5416666666667C756.6666666666666 800.8333333333334 776.4583333333333 800.8333333333334 788.5416666666665 788.5416666666667S800.8333333333333 756.4583333333334 788.5416666666665 744.375L744.3749999999999 700.2083333333333C738.3333333333333 694.1666666666667 730.2083333333333 691.0416666666667 722.2916666666665 691.0416666666667zM233.5416666666667 202.2916666666668C225.625 202.2916666666668 217.5 205.4166666666668 211.4583333333334 211.4583333333334C199.1666666666667 223.7500000000001 199.1666666666667 243.5416666666667 211.4583333333334 255.625L255.625 299.7916666666665C267.9166666666667 312.0833333333333 287.7083333333333 312.0833333333333 299.7916666666667 299.7916666666665S312.0833333333333 267.7083333333333 299.7916666666667 255.625L255.625 211.4583333333334C249.5833333333333 205.4166666666668 241.4583333333333 202.2916666666668 233.5416666666667 202.2916666666668z" />
    <glyph glyph-name="budget_lunch-1"
      unicode="&#x62;&#x75;&#x64;&#x67;&#x65;&#x74;&#x5F;&#x6C;&#x75;&#x6E;&#x63;&#x68;"
      horiz-adv-x="1000" d="M738.5416666666666 500C738.5416666666666 541.25 728.125 580 709.7916666666666 613.75C702.4999999999999 627.2916666666667 693.7499999999999 640 684.1666666666667 651.875C674.375 663.75 663.5416666666667 674.5833333333333 651.875 684.1666666666667C640 693.9583333333334 627.2916666666667 702.5 613.75 709.7916666666667S585.8333333333334 723.125 571.0416666666666 727.9166666666667C548.5416666666666 734.7916666666667 524.7916666666666 738.5416666666667 500 738.5416666666667S451.4583333333334 734.7916666666667 428.9583333333333 727.9166666666667C413.9583333333333 723.3333333333333 399.7916666666667 717.2916666666667 386.25 709.7916666666667C372.7083333333333 702.5 360 693.75 348.125 684.1666666666667C336.25 674.375 325.4166666666667 663.5416666666667 315.8333333333333 651.875C306.0416666666667 640 297.5 627.2916666666667 290.2083333333333 613.75C271.875 580 261.4583333333333 541.25 261.4583333333333 500C261.4583333333333 458.75 271.875 420 290.2083333333333 386.25C297.5 372.7083333333334 306.25 360 315.8333333333333 348.125C359.5833333333334 295.0000000000001 425.8333333333333 261.25 500 261.25S640.4166666666666 295 684.1666666666667 348.125C693.9583333333334 360.0000000000001 702.5000000000001 372.7083333333334 709.7916666666666 386.25C728.125 420 738.5416666666666 458.75 738.5416666666666 500zM185.625 468.75H122.9166666666667C105.625 468.75 91.6666666666667 482.7083333333334 91.6666666666667 500S105.625 531.25 122.9166666666667 531.25H185.625C202.9166666666667 531.25 216.875 517.2916666666667 216.875 500S202.9166666666667 468.75 185.625 468.75zM876.875 468.75H814.1666666666667C796.8750000000001 468.75 782.9166666666667 482.7083333333334 782.9166666666667 500S796.8750000000001 531.25 814.1666666666667 531.25H876.875C894.1666666666666 531.25 908.125 517.2916666666667 908.125 500S894.1666666666666 468.75 876.875 468.75zM500 783.125C482.7083333333333 783.125 468.75 797.0833333333334 468.75 814.375V877.0833333333334C468.75 894.375 482.7083333333333 908.3333333333334 500 908.3333333333334S531.25 894.375 531.25 877.0833333333334V814.375C531.25 797.0833333333334 517.2916666666666 783.125 500 783.125zM500 91.875C482.7083333333333 91.875 468.75 105.8333333333334 468.75 123.125V185.8333333333333C468.75 203.1249999999999 482.7083333333333 217.0833333333333 500 217.0833333333333S531.25 203.1249999999999 531.25 185.8333333333333V123.125C531.25 105.8333333333334 517.2916666666666 91.875 500 91.875zM277.7083333333333 691.0416666666667C269.7916666666667 691.0416666666667 261.6666666666667 694.1666666666667 255.625 700.2083333333333L211.4583333333333 744.375C199.1666666666666 756.6666666666667 199.1666666666666 776.4583333333334 211.4583333333333 788.5416666666667S243.5416666666666 800.8333333333334 255.625 788.5416666666667L299.7916666666667 744.375C312.0833333333333 732.0833333333334 312.0833333333333 712.2916666666667 299.7916666666667 700.2083333333333C293.75 694.1666666666667 285.625 691.0416666666667 277.7083333333333 691.0416666666667zM766.4583333333333 202.2916666666668C758.5416666666665 202.2916666666668 750.4166666666665 205.4166666666668 744.3749999999999 211.4583333333334L700.2083333333333 255.625C687.9166666666665 267.9166666666668 687.9166666666665 287.7083333333333 700.2083333333333 299.7916666666665S732.2916666666666 312.0833333333333 744.3749999999999 299.7916666666665L788.5416666666665 255.625C800.8333333333333 243.3333333333333 800.8333333333333 223.5416666666666 788.5416666666665 211.4583333333334C782.4999999999999 205.4166666666668 774.3749999999999 202.2916666666668 766.4583333333331 202.2916666666668zM722.2916666666666 691.0416666666667C714.3749999999999 691.0416666666667 706.2499999999999 694.1666666666667 700.2083333333333 700.2083333333333C687.9166666666665 712.5 687.9166666666665 732.2916666666666 700.2083333333333 744.375L744.3749999999999 788.5416666666667C756.6666666666666 800.8333333333334 776.4583333333333 800.8333333333334 788.5416666666665 788.5416666666667S800.8333333333333 756.4583333333334 788.5416666666665 744.375L744.3749999999999 700.2083333333333C738.3333333333333 694.1666666666667 730.2083333333333 691.0416666666667 722.2916666666665 691.0416666666667zM233.5416666666667 202.2916666666668C225.625 202.2916666666668 217.5 205.4166666666668 211.4583333333334 211.4583333333334C199.1666666666667 223.7500000000001 199.1666666666667 243.5416666666667 211.4583333333334 255.625L255.625 299.7916666666665C267.9166666666667 312.0833333333333 287.7083333333333 312.0833333333333 299.7916666666667 299.7916666666665S312.0833333333333 267.7083333333333 299.7916666666667 255.625L255.625 211.4583333333334C249.5833333333333 205.4166666666668 241.4583333333333 202.2916666666668 233.5416666666667 202.2916666666668z" />
    <glyph glyph-name="budget_morning_outline"
      unicode="&#xF10D;"
      horiz-adv-x="1000" d="M198.5416666666666 399.1666666666668H138.5416666666667C121.25 399.1666666666668 107.2916666666666 413.1250000000001 107.2916666666666 430.4166666666668S121.25 461.6666666666667 138.5416666666667 461.6666666666667H198.5416666666666C215.8333333333333 461.6666666666667 229.7916666666667 447.7083333333334 229.7916666666667 430.4166666666668S215.8333333333333 399.1666666666668 198.5416666666666 399.1666666666668zM861.4583333333333 399.1666666666668H801.4583333333333C784.1666666666666 399.1666666666668 770.2083333333333 413.1250000000001 770.2083333333333 430.4166666666668S784.1666666666666 461.6666666666667 801.4583333333333 461.6666666666667H861.4583333333333C878.75 461.6666666666667 892.7083333333333 447.7083333333334 892.7083333333333 430.4166666666668S878.75 399.1666666666668 861.4583333333333 399.1666666666668zM500 700.625C482.7083333333333 700.625 468.75 714.5833333333334 468.75 731.875V791.875C468.75 809.1666666666667 482.7083333333333 823.125 500 823.125S531.25 809.1666666666667 531.25 791.875V731.875C531.25 714.5833333333335 517.2916666666666 700.625 500 700.625zM286.875 612.2916666666667C278.9583333333333 612.2916666666667 270.8333333333333 615.4166666666667 264.7916666666667 621.4583333333334L222.2916666666666 663.9583333333334C210 676.25 210 696.0416666666667 222.2916666666666 708.125C234.5833333333333 720.4166666666667 254.375 720.4166666666667 266.4583333333333 708.125L308.9583333333333 665.625C321.25 653.3333333333335 321.25 633.5416666666667 308.9583333333333 621.4583333333334C302.9166666666667 615.4166666666667 294.7916666666667 612.2916666666667 286.875 612.2916666666667zM713.1249999999999 612.2916666666667C705.2083333333331 612.2916666666667 697.0833333333331 615.4166666666667 691.0416666666665 621.4583333333334C678.7499999999998 633.5416666666667 678.7499999999998 653.5416666666667 691.0416666666665 665.625L733.5416666666665 708.125C745.8333333333333 720.4166666666667 765.6249999999998 720.4166666666667 777.7083333333331 708.125C789.9999999999999 696.0416666666667 789.9999999999999 676.0416666666667 777.7083333333331 663.9583333333334L735.2083333333331 621.4583333333334C729.1666666666665 615.4166666666667 721.0416666666665 612.2916666666667 713.1249999999998 612.2916666666667zM331.4583333333333 372.7083333333334C325.2083333333333 391.2500000000001 321.6666666666667 410.625 321.6666666666667 430.4166666666668C321.6666666666667 528.75 401.6666666666667 608.75 500 608.75S678.3333333333334 528.75 678.3333333333334 430.4166666666667C678.3333333333334 410.625 675.0000000000001 391.25 668.5416666666667 372.7083333333333H733.7500000000001C738.3333333333334 391.25 740.8333333333335 410.625 740.8333333333335 430.4166666666667C740.8333333333335 563.3333333333333 632.9166666666669 671.25 500.0000000000001 671.25S259.1666666666668 563.3333333333333 259.1666666666668 430.4166666666667C259.1666666666668 410.4166666666667 261.6666666666668 391.25 266.2500000000001 372.7083333333333zM909.5833333333331 239.7916666666667H90.4166666666666C73.1249999999999 239.7916666666667 59.1666666666666 253.75 59.1666666666666 271.0416666666667S73.1249999999999 302.2916666666667 90.4166666666666 302.2916666666667H909.5833333333331C926.8749999999998 302.2916666666667 940.8333333333331 288.3333333333333 940.8333333333331 271.0416666666667S926.8749999999998 239.7916666666667 909.5833333333331 239.7916666666667z" />
    <glyph glyph-name="budget_morning_outline-1"
      unicode="&#x62;&#x75;&#x64;&#x67;&#x65;&#x74;&#x5F;&#x6D;&#x6F;&#x72;&#x6E;&#x69;&#x6E;&#x67;&#x5F;&#x6F;&#x75;&#x74;&#x6C;&#x69;&#x6E;&#x65;"
      horiz-adv-x="1000" d="M198.5416666666666 399.1666666666668H138.5416666666667C121.25 399.1666666666668 107.2916666666666 413.1250000000001 107.2916666666666 430.4166666666668S121.25 461.6666666666667 138.5416666666667 461.6666666666667H198.5416666666666C215.8333333333333 461.6666666666667 229.7916666666667 447.7083333333334 229.7916666666667 430.4166666666668S215.8333333333333 399.1666666666668 198.5416666666666 399.1666666666668zM861.4583333333333 399.1666666666668H801.4583333333333C784.1666666666666 399.1666666666668 770.2083333333333 413.1250000000001 770.2083333333333 430.4166666666668S784.1666666666666 461.6666666666667 801.4583333333333 461.6666666666667H861.4583333333333C878.75 461.6666666666667 892.7083333333333 447.7083333333334 892.7083333333333 430.4166666666668S878.75 399.1666666666668 861.4583333333333 399.1666666666668zM500 700.625C482.7083333333333 700.625 468.75 714.5833333333334 468.75 731.875V791.875C468.75 809.1666666666667 482.7083333333333 823.125 500 823.125S531.25 809.1666666666667 531.25 791.875V731.875C531.25 714.5833333333335 517.2916666666666 700.625 500 700.625zM286.875 612.2916666666667C278.9583333333333 612.2916666666667 270.8333333333333 615.4166666666667 264.7916666666667 621.4583333333334L222.2916666666666 663.9583333333334C210 676.25 210 696.0416666666667 222.2916666666666 708.125C234.5833333333333 720.4166666666667 254.375 720.4166666666667 266.4583333333333 708.125L308.9583333333333 665.625C321.25 653.3333333333335 321.25 633.5416666666667 308.9583333333333 621.4583333333334C302.9166666666667 615.4166666666667 294.7916666666667 612.2916666666667 286.875 612.2916666666667zM713.1249999999999 612.2916666666667C705.2083333333331 612.2916666666667 697.0833333333331 615.4166666666667 691.0416666666665 621.4583333333334C678.7499999999998 633.5416666666667 678.7499999999998 653.5416666666667 691.0416666666665 665.625L733.5416666666665 708.125C745.8333333333333 720.4166666666667 765.6249999999998 720.4166666666667 777.7083333333331 708.125C789.9999999999999 696.0416666666667 789.9999999999999 676.0416666666667 777.7083333333331 663.9583333333334L735.2083333333331 621.4583333333334C729.1666666666665 615.4166666666667 721.0416666666665 612.2916666666667 713.1249999999998 612.2916666666667zM331.4583333333333 372.7083333333334C325.2083333333333 391.2500000000001 321.6666666666667 410.625 321.6666666666667 430.4166666666668C321.6666666666667 528.75 401.6666666666667 608.75 500 608.75S678.3333333333334 528.75 678.3333333333334 430.4166666666667C678.3333333333334 410.625 675.0000000000001 391.25 668.5416666666667 372.7083333333333H733.7500000000001C738.3333333333334 391.25 740.8333333333335 410.625 740.8333333333335 430.4166666666667C740.8333333333335 563.3333333333333 632.9166666666669 671.25 500.0000000000001 671.25S259.1666666666668 563.3333333333333 259.1666666666668 430.4166666666667C259.1666666666668 410.4166666666667 261.6666666666668 391.25 266.2500000000001 372.7083333333333zM909.5833333333331 239.7916666666667H90.4166666666666C73.1249999999999 239.7916666666667 59.1666666666666 253.75 59.1666666666666 271.0416666666667S73.1249999999999 302.2916666666667 90.4166666666666 302.2916666666667H909.5833333333331C926.8749999999998 302.2916666666667 940.8333333333331 288.3333333333333 940.8333333333331 271.0416666666667S926.8749999999998 239.7916666666667 909.5833333333331 239.7916666666667z" />
    <glyph glyph-name="budget_morning"
      unicode="&#xF10E;"
      horiz-adv-x="1000" d="M198.5416666666666 399.1666666666668H138.5416666666667C121.25 399.1666666666668 107.2916666666666 413.1250000000001 107.2916666666666 430.4166666666668S121.25 461.6666666666667 138.5416666666667 461.6666666666667H198.5416666666666C215.8333333333333 461.6666666666667 229.7916666666667 447.7083333333334 229.7916666666667 430.4166666666668S215.8333333333333 399.1666666666668 198.5416666666666 399.1666666666668zM861.4583333333333 399.1666666666668H801.4583333333333C784.1666666666666 399.1666666666668 770.2083333333333 413.1250000000001 770.2083333333333 430.4166666666668S784.1666666666666 461.6666666666667 801.4583333333333 461.6666666666667H861.4583333333333C878.75 461.6666666666667 892.7083333333333 447.7083333333334 892.7083333333333 430.4166666666668S878.75 399.1666666666668 861.4583333333333 399.1666666666668zM500 700.625C482.7083333333333 700.625 468.75 714.5833333333334 468.75 731.875V791.875C468.75 809.1666666666667 482.7083333333333 823.125 500 823.125S531.25 809.1666666666667 531.25 791.875V731.875C531.25 714.5833333333335 517.2916666666666 700.625 500 700.625zM286.875 612.2916666666667C278.9583333333333 612.2916666666667 270.8333333333333 615.4166666666667 264.7916666666667 621.4583333333334L222.2916666666666 663.9583333333334C210 676.25 210 696.0416666666667 222.2916666666666 708.125C234.5833333333333 720.4166666666667 254.375 720.4166666666667 266.4583333333333 708.125L308.9583333333333 665.625C321.25 653.3333333333335 321.25 633.5416666666667 308.9583333333333 621.4583333333334C302.9166666666667 615.4166666666667 294.7916666666667 612.2916666666667 286.875 612.2916666666667zM713.1249999999999 612.2916666666667C705.2083333333331 612.2916666666667 697.0833333333331 615.4166666666667 691.0416666666665 621.4583333333334C678.7499999999998 633.5416666666667 678.7499999999998 653.5416666666667 691.0416666666665 665.625L733.5416666666665 708.125C745.8333333333333 720.4166666666667 765.6249999999998 720.4166666666667 777.7083333333331 708.125C789.9999999999999 696.0416666666667 789.9999999999999 676.0416666666667 777.7083333333331 663.9583333333334L735.2083333333331 621.4583333333334C729.1666666666665 615.4166666666667 721.0416666666665 612.2916666666667 713.1249999999998 612.2916666666667zM733.7499999999999 372.7083333333334C738.3333333333333 391.2500000000001 740.8333333333334 410.625 740.8333333333334 430.4166666666668C740.8333333333334 563.3333333333333 632.9166666666666 671.25 500 671.25S259.1666666666667 563.3333333333333 259.1666666666667 430.4166666666668C259.1666666666667 410.4166666666667 261.6666666666667 391.2500000000001 266.25 372.7083333333334zM909.5833333333331 239.7916666666667H90.4166666666666C73.1249999999999 239.7916666666667 59.1666666666666 253.75 59.1666666666666 271.0416666666667S73.1249999999999 302.2916666666667 90.4166666666666 302.2916666666667H909.5833333333331C926.8749999999998 302.2916666666667 940.8333333333331 288.3333333333333 940.8333333333331 271.0416666666667S926.8749999999998 239.7916666666667 909.5833333333331 239.7916666666667z" />
    <glyph glyph-name="budget_morning-1"
      unicode="&#x62;&#x75;&#x64;&#x67;&#x65;&#x74;&#x5F;&#x6D;&#x6F;&#x72;&#x6E;&#x69;&#x6E;&#x67;"
      horiz-adv-x="1000" d="M198.5416666666666 399.1666666666668H138.5416666666667C121.25 399.1666666666668 107.2916666666666 413.1250000000001 107.2916666666666 430.4166666666668S121.25 461.6666666666667 138.5416666666667 461.6666666666667H198.5416666666666C215.8333333333333 461.6666666666667 229.7916666666667 447.7083333333334 229.7916666666667 430.4166666666668S215.8333333333333 399.1666666666668 198.5416666666666 399.1666666666668zM861.4583333333333 399.1666666666668H801.4583333333333C784.1666666666666 399.1666666666668 770.2083333333333 413.1250000000001 770.2083333333333 430.4166666666668S784.1666666666666 461.6666666666667 801.4583333333333 461.6666666666667H861.4583333333333C878.75 461.6666666666667 892.7083333333333 447.7083333333334 892.7083333333333 430.4166666666668S878.75 399.1666666666668 861.4583333333333 399.1666666666668zM500 700.625C482.7083333333333 700.625 468.75 714.5833333333334 468.75 731.875V791.875C468.75 809.1666666666667 482.7083333333333 823.125 500 823.125S531.25 809.1666666666667 531.25 791.875V731.875C531.25 714.5833333333335 517.2916666666666 700.625 500 700.625zM286.875 612.2916666666667C278.9583333333333 612.2916666666667 270.8333333333333 615.4166666666667 264.7916666666667 621.4583333333334L222.2916666666666 663.9583333333334C210 676.25 210 696.0416666666667 222.2916666666666 708.125C234.5833333333333 720.4166666666667 254.375 720.4166666666667 266.4583333333333 708.125L308.9583333333333 665.625C321.25 653.3333333333335 321.25 633.5416666666667 308.9583333333333 621.4583333333334C302.9166666666667 615.4166666666667 294.7916666666667 612.2916666666667 286.875 612.2916666666667zM713.1249999999999 612.2916666666667C705.2083333333331 612.2916666666667 697.0833333333331 615.4166666666667 691.0416666666665 621.4583333333334C678.7499999999998 633.5416666666667 678.7499999999998 653.5416666666667 691.0416666666665 665.625L733.5416666666665 708.125C745.8333333333333 720.4166666666667 765.6249999999998 720.4166666666667 777.7083333333331 708.125C789.9999999999999 696.0416666666667 789.9999999999999 676.0416666666667 777.7083333333331 663.9583333333334L735.2083333333331 621.4583333333334C729.1666666666665 615.4166666666667 721.0416666666665 612.2916666666667 713.1249999999998 612.2916666666667zM733.7499999999999 372.7083333333334C738.3333333333333 391.2500000000001 740.8333333333334 410.625 740.8333333333334 430.4166666666668C740.8333333333334 563.3333333333333 632.9166666666666 671.25 500 671.25S259.1666666666667 563.3333333333333 259.1666666666667 430.4166666666668C259.1666666666667 410.4166666666667 261.6666666666667 391.2500000000001 266.25 372.7083333333334zM909.5833333333331 239.7916666666667H90.4166666666666C73.1249999999999 239.7916666666667 59.1666666666666 253.75 59.1666666666666 271.0416666666667S73.1249999999999 302.2916666666667 90.4166666666666 302.2916666666667H909.5833333333331C926.8749999999998 302.2916666666667 940.8333333333331 288.3333333333333 940.8333333333331 271.0416666666667S926.8749999999998 239.7916666666667 909.5833333333331 239.7916666666667z" />
    <glyph glyph-name="budget"
      unicode="&#xF10F;"
      horiz-adv-x="1000" d="M518.7499999999999 459.7916666666667C533.125 459.7916666666667 544.7916666666666 471.4583333333334 544.7916666666666 485.8333333333334S533.125 511.8750000000001 518.7499999999999 511.8750000000001H508.5416666666666L532.2916666666666 552.9166666666667C539.375 565.4166666666667 535.2083333333334 581.25 522.7083333333333 588.5416666666667C510.2083333333333 595.625 494.375 591.4583333333334 487.0833333333333 578.9583333333333L431.25 482.2916666666666L375.4166666666667 578.9583333333333C368.125 591.4583333333334 352.2916666666667 595.625 339.7916666666667 588.5416666666667S323.125 565.4166666666667 330.2083333333333 552.9166666666667L353.9583333333333 511.8750000000001H343.75C329.375 511.8750000000001 317.7083333333333 500.2083333333334 317.7083333333333 485.8333333333334S329.375 459.7916666666667 343.75 459.7916666666667H383.9583333333333L397.9166666666667 435.4166666666667H362.9166666666667C348.5416666666667 435.4166666666667 336.875 423.75 336.875 409.375S348.5416666666667 383.3333333333334 362.9166666666667 383.3333333333334H405V329.3750000000001C405 315.0000000000001 416.6666666666667 303.3333333333334 431.0416666666667 303.3333333333334S457.0833333333333 315.0000000000001 457.0833333333333 329.3750000000001V383.3333333333334H499.1666666666666C513.5416666666666 383.3333333333334 525.2083333333334 395 525.2083333333334 409.3750000000001S513.5416666666666 435.4166666666668 499.1666666666666 435.4166666666668H464.1666666666667L478.1250000000001 459.7916666666667H518.3333333333334zM797.2916666666667 183.9583333333334H65.0000000000001C47.7083333333334 183.9583333333334 33.7500000000001 197.9166666666668 33.7500000000001 215.2083333333334V688.3333333333333C33.7500000000001 705.625 47.7083333333334 719.5833333333333 65.0000000000001 719.5833333333333H797.2916666666667C814.5833333333334 719.5833333333333 828.5416666666666 705.625 828.5416666666666 688.3333333333333V215.2083333333334C828.5416666666666 197.9166666666668 814.5833333333334 183.9583333333334 797.2916666666667 183.9583333333334zM96.2500000000001 246.4583333333334H766.0416666666667V657.0833333333333H96.2500000000001V246.4583333333334zM935 295C917.7083333333334 295 903.75 308.9583333333334 903.75 326.25V794.5833333333333H183.3333333333334C166.0416666666668 794.5833333333333 152.0833333333334 808.5416666666666 152.0833333333334 825.8333333333333S166.0416666666668 857.0833333333333 183.3333333333334 857.0833333333333H935C952.2916666666666 857.0833333333333 966.25 843.125 966.25 825.8333333333333V326.25C966.25 308.9583333333334 952.2916666666666 295 935 295z" />
    <glyph glyph-name="budget-1"
      unicode="&#x62;&#x75;&#x64;&#x67;&#x65;&#x74;"
      horiz-adv-x="1000" d="M518.7499999999999 459.7916666666667C533.125 459.7916666666667 544.7916666666666 471.4583333333334 544.7916666666666 485.8333333333334S533.125 511.8750000000001 518.7499999999999 511.8750000000001H508.5416666666666L532.2916666666666 552.9166666666667C539.375 565.4166666666667 535.2083333333334 581.25 522.7083333333333 588.5416666666667C510.2083333333333 595.625 494.375 591.4583333333334 487.0833333333333 578.9583333333333L431.25 482.2916666666666L375.4166666666667 578.9583333333333C368.125 591.4583333333334 352.2916666666667 595.625 339.7916666666667 588.5416666666667S323.125 565.4166666666667 330.2083333333333 552.9166666666667L353.9583333333333 511.8750000000001H343.75C329.375 511.8750000000001 317.7083333333333 500.2083333333334 317.7083333333333 485.8333333333334S329.375 459.7916666666667 343.75 459.7916666666667H383.9583333333333L397.9166666666667 435.4166666666667H362.9166666666667C348.5416666666667 435.4166666666667 336.875 423.75 336.875 409.375S348.5416666666667 383.3333333333334 362.9166666666667 383.3333333333334H405V329.3750000000001C405 315.0000000000001 416.6666666666667 303.3333333333334 431.0416666666667 303.3333333333334S457.0833333333333 315.0000000000001 457.0833333333333 329.3750000000001V383.3333333333334H499.1666666666666C513.5416666666666 383.3333333333334 525.2083333333334 395 525.2083333333334 409.3750000000001S513.5416666666666 435.4166666666668 499.1666666666666 435.4166666666668H464.1666666666667L478.1250000000001 459.7916666666667H518.3333333333334zM797.2916666666667 183.9583333333334H65.0000000000001C47.7083333333334 183.9583333333334 33.7500000000001 197.9166666666668 33.7500000000001 215.2083333333334V688.3333333333333C33.7500000000001 705.625 47.7083333333334 719.5833333333333 65.0000000000001 719.5833333333333H797.2916666666667C814.5833333333334 719.5833333333333 828.5416666666666 705.625 828.5416666666666 688.3333333333333V215.2083333333334C828.5416666666666 197.9166666666668 814.5833333333334 183.9583333333334 797.2916666666667 183.9583333333334zM96.2500000000001 246.4583333333334H766.0416666666667V657.0833333333333H96.2500000000001V246.4583333333334zM935 295C917.7083333333334 295 903.75 308.9583333333334 903.75 326.25V794.5833333333333H183.3333333333334C166.0416666666668 794.5833333333333 152.0833333333334 808.5416666666666 152.0833333333334 825.8333333333333S166.0416666666668 857.0833333333333 183.3333333333334 857.0833333333333H935C952.2916666666666 857.0833333333333 966.25 843.125 966.25 825.8333333333333V326.25C966.25 308.9583333333334 952.2916666666666 295 935 295z" />
    <glyph glyph-name="camera_outline"
      unicode="&#xF110;"
      horiz-adv-x="1000" d="M858.1249999999999 156.0416666666668H141.8749999999999C109.5833333333332 156.0416666666668 83.3333333333332 182.2916666666668 83.3333333333332 214.5833333333335V686.8750000000002C83.3333333333332 719.1666666666667 109.5833333333332 745.4166666666669 141.8749999999999 745.4166666666669H291.2499999999999L317.9166666666665 842.9166666666667C324.7916666666665 868.3333333333335 348.1249999999999 886.0416666666669 374.3749999999999 886.0416666666669H625.2083333333331C651.4583333333333 886.0416666666669 674.7916666666665 868.3333333333335 681.6666666666664 842.9166666666667L708.3333333333331 745.4166666666669H857.7083333333331C889.9999999999998 745.4166666666669 916.2499999999998 719.1666666666667 916.2499999999998 686.8750000000002V214.5833333333335C916.2499999999998 182.2916666666669 889.9999999999999 156.0416666666668 857.7083333333331 156.0416666666668zM145.8333333333333 218.5416666666668H854.1666666666666V683.125H705.6249999999999C679.375 683.125 656.0416666666666 700.8333333333334 649.1666666666665 726.25L622.4999999999999 823.75H377.7083333333332L351.0416666666665 726.25C344.1666666666666 700.8333333333334 320.8333333333332 683.125 294.5833333333332 683.125H145.8333333333332V218.75zM500 256.4583333333334C381.6666666666667 256.4583333333334 285.2083333333333 352.7083333333335 285.2083333333333 471.2500000000001S381.4583333333333 686.0416666666667 500 686.0416666666667S714.7916666666666 589.7916666666667 714.7916666666666 471.2500000000001S618.5416666666666 256.4583333333334 500 256.4583333333334zM500 623.3333333333334C416.0416666666667 623.3333333333334 347.7083333333333 555 347.7083333333333 471.0416666666667S416.0416666666667 318.7500000000001 500 318.7500000000001S652.2916666666666 387.0833333333335 652.2916666666666 471.0416666666667S583.9583333333333 623.3333333333334 500 623.3333333333334z" />
    <glyph glyph-name="camera_outline-1"
      unicode="&#x63;&#x61;&#x6D;&#x65;&#x72;&#x61;&#x5F;&#x6F;&#x75;&#x74;&#x6C;&#x69;&#x6E;&#x65;"
      horiz-adv-x="1000" d="M858.1249999999999 156.0416666666668H141.8749999999999C109.5833333333332 156.0416666666668 83.3333333333332 182.2916666666668 83.3333333333332 214.5833333333335V686.8750000000002C83.3333333333332 719.1666666666667 109.5833333333332 745.4166666666669 141.8749999999999 745.4166666666669H291.2499999999999L317.9166666666665 842.9166666666667C324.7916666666665 868.3333333333335 348.1249999999999 886.0416666666669 374.3749999999999 886.0416666666669H625.2083333333331C651.4583333333333 886.0416666666669 674.7916666666665 868.3333333333335 681.6666666666664 842.9166666666667L708.3333333333331 745.4166666666669H857.7083333333331C889.9999999999998 745.4166666666669 916.2499999999998 719.1666666666667 916.2499999999998 686.8750000000002V214.5833333333335C916.2499999999998 182.2916666666669 889.9999999999999 156.0416666666668 857.7083333333331 156.0416666666668zM145.8333333333333 218.5416666666668H854.1666666666666V683.125H705.6249999999999C679.375 683.125 656.0416666666666 700.8333333333334 649.1666666666665 726.25L622.4999999999999 823.75H377.7083333333332L351.0416666666665 726.25C344.1666666666666 700.8333333333334 320.8333333333332 683.125 294.5833333333332 683.125H145.8333333333332V218.75zM500 256.4583333333334C381.6666666666667 256.4583333333334 285.2083333333333 352.7083333333335 285.2083333333333 471.2500000000001S381.4583333333333 686.0416666666667 500 686.0416666666667S714.7916666666666 589.7916666666667 714.7916666666666 471.2500000000001S618.5416666666666 256.4583333333334 500 256.4583333333334zM500 623.3333333333334C416.0416666666667 623.3333333333334 347.7083333333333 555 347.7083333333333 471.0416666666667S416.0416666666667 318.7500000000001 500 318.7500000000001S652.2916666666666 387.0833333333335 652.2916666666666 471.0416666666667S583.9583333333333 623.3333333333334 500 623.3333333333334z" />
    <glyph glyph-name="camera"
      unicode="&#xF111;"
      horiz-adv-x="1000" d="M858.1249999999999 724.375H708.7499999999999L682.0833333333331 821.875C675.2083333333333 847.2916666666666 651.8749999999999 865 625.6249999999999 865H374.7916666666665C348.5416666666665 865 325.2083333333332 847.2916666666667 318.3333333333332 821.875L291.6666666666665 724.375H141.8749999999999C109.5833333333332 724.375 83.3333333333332 698.125 83.3333333333332 665.8333333333334V193.5416666666668C83.3333333333332 161.2500000000001 109.5833333333332 135 141.8749999999999 135H858.1249999999999C890.4166666666665 135 916.6666666666666 161.2499999999999 916.6666666666666 193.5416666666668V665.8333333333334C916.6666666666666 698.125 890.4166666666666 724.375 858.1249999999999 724.375zM499.9999999999999 235.4166666666667C381.6666666666666 235.4166666666667 285.2083333333333 331.6666666666667 285.2083333333333 450.2083333333334S381.4583333333332 665 499.9999999999999 665S714.7916666666665 568.75 714.7916666666665 450.2083333333334S618.5416666666665 235.4166666666667 499.9999999999998 235.4166666666667zM347.7083333333333 450.2083333333334A152.2916666666667 152.2916666666667 0 0 1 652.2916666666666 450.2083333333334A152.2916666666667 152.2916666666667 0 0 1 347.7083333333333 450.2083333333334" />
    <glyph glyph-name="camera-1"
      unicode="&#x63;&#x61;&#x6D;&#x65;&#x72;&#x61;"
      horiz-adv-x="1000" d="M858.1249999999999 724.375H708.7499999999999L682.0833333333331 821.875C675.2083333333333 847.2916666666666 651.8749999999999 865 625.6249999999999 865H374.7916666666665C348.5416666666665 865 325.2083333333332 847.2916666666667 318.3333333333332 821.875L291.6666666666665 724.375H141.8749999999999C109.5833333333332 724.375 83.3333333333332 698.125 83.3333333333332 665.8333333333334V193.5416666666668C83.3333333333332 161.2500000000001 109.5833333333332 135 141.8749999999999 135H858.1249999999999C890.4166666666665 135 916.6666666666666 161.2499999999999 916.6666666666666 193.5416666666668V665.8333333333334C916.6666666666666 698.125 890.4166666666666 724.375 858.1249999999999 724.375zM499.9999999999999 235.4166666666667C381.6666666666666 235.4166666666667 285.2083333333333 331.6666666666667 285.2083333333333 450.2083333333334S381.4583333333332 665 499.9999999999999 665S714.7916666666665 568.75 714.7916666666665 450.2083333333334S618.5416666666665 235.4166666666667 499.9999999999998 235.4166666666667zM347.7083333333333 450.2083333333334A152.2916666666667 152.2916666666667 0 0 1 652.2916666666666 450.2083333333334A152.2916666666667 152.2916666666667 0 0 1 347.7083333333333 450.2083333333334" />
    <glyph glyph-name="cancel_bold"
      unicode="&#xF112;"
      horiz-adv-x="1000" d="M588.3333333333333 500L838.9583333333333 750.625C863.3333333333333 775 863.3333333333333 814.5833333333334 838.9583333333333 838.9583333333334S774.9999999999999 863.3333333333334 750.6249999999999 838.9583333333334L499.9999999999998 588.3333333333334L249.3749999999999 838.9583333333334C224.9999999999999 863.3333333333334 185.4166666666665 863.3333333333334 161.0416666666665 838.9583333333334S136.6666666666665 775 161.0416666666665 750.625L411.6666666666665 500L161.0416666666665 249.375C136.6666666666665 225 136.6666666666665 185.4166666666666 161.0416666666665 161.0416666666666C173.3333333333332 148.7499999999999 189.1666666666665 142.7083333333333 205.2083333333331 142.7083333333333S237.2916666666665 148.7499999999999 249.3749999999998 161.0416666666666L499.9999999999998 411.6666666666667L750.6249999999999 161.0416666666666C762.9166666666665 148.7499999999999 778.7499999999999 142.7083333333333 794.7916666666664 142.7083333333333S826.8749999999998 148.7499999999999 838.958333333333 161.0416666666666C863.3333333333331 185.4166666666666 863.3333333333331 225 838.958333333333 249.375z" />
    <glyph glyph-name="cancel_bold-1"
      unicode="&#x63;&#x61;&#x6E;&#x63;&#x65;&#x6C;&#x5F;&#x62;&#x6F;&#x6C;&#x64;"
      horiz-adv-x="1000" d="M588.3333333333333 500L838.9583333333333 750.625C863.3333333333333 775 863.3333333333333 814.5833333333334 838.9583333333333 838.9583333333334S774.9999999999999 863.3333333333334 750.6249999999999 838.9583333333334L499.9999999999998 588.3333333333334L249.3749999999999 838.9583333333334C224.9999999999999 863.3333333333334 185.4166666666665 863.3333333333334 161.0416666666665 838.9583333333334S136.6666666666665 775 161.0416666666665 750.625L411.6666666666665 500L161.0416666666665 249.375C136.6666666666665 225 136.6666666666665 185.4166666666666 161.0416666666665 161.0416666666666C173.3333333333332 148.7499999999999 189.1666666666665 142.7083333333333 205.2083333333331 142.7083333333333S237.2916666666665 148.7499999999999 249.3749999999998 161.0416666666666L499.9999999999998 411.6666666666667L750.6249999999999 161.0416666666666C762.9166666666665 148.7499999999999 778.7499999999999 142.7083333333333 794.7916666666664 142.7083333333333S826.8749999999998 148.7499999999999 838.958333333333 161.0416666666666C863.3333333333331 185.4166666666666 863.3333333333331 225 838.958333333333 249.375z" />
    <glyph glyph-name="cancel"
      unicode="&#xF113;"
      horiz-adv-x="1000" d="M558.9583333333333 500L833.3333333333333 774.375C849.5833333333333 790.625 849.5833333333333 817.0833333333333 833.3333333333333 833.3333333333334S790.625 849.5833333333334 774.375 833.3333333333334L500 558.9583333333333L225.625 833.3333333333333C209.375 849.5833333333333 182.9166666666667 849.5833333333333 166.6666666666667 833.3333333333333S150.4166666666667 790.625 166.6666666666667 774.375L441.0416666666667 500L166.6666666666667 225.625C150.4166666666667 209.375 150.4166666666667 182.9166666666668 166.6666666666667 166.6666666666668C174.7916666666667 158.5416666666668 185.4166666666667 154.375 196.0416666666667 154.375S217.2916666666667 158.5416666666668 225.4166666666667 166.6666666666668L499.7916666666667 441.0416666666668L774.1666666666667 166.6666666666668C782.2916666666667 158.5416666666668 792.9166666666666 154.375 803.5416666666666 154.375S824.7916666666667 158.5416666666668 832.9166666666665 166.6666666666668C849.1666666666666 182.9166666666668 849.1666666666666 209.375 832.9166666666665 225.625L558.5416666666665 500z" />
    <glyph glyph-name="cancel-1"
      unicode="&#x63;&#x61;&#x6E;&#x63;&#x65;&#x6C;"
      horiz-adv-x="1000" d="M558.9583333333333 500L833.3333333333333 774.375C849.5833333333333 790.625 849.5833333333333 817.0833333333333 833.3333333333333 833.3333333333334S790.625 849.5833333333334 774.375 833.3333333333334L500 558.9583333333333L225.625 833.3333333333333C209.375 849.5833333333333 182.9166666666667 849.5833333333333 166.6666666666667 833.3333333333333S150.4166666666667 790.625 166.6666666666667 774.375L441.0416666666667 500L166.6666666666667 225.625C150.4166666666667 209.375 150.4166666666667 182.9166666666668 166.6666666666667 166.6666666666668C174.7916666666667 158.5416666666668 185.4166666666667 154.375 196.0416666666667 154.375S217.2916666666667 158.5416666666668 225.4166666666667 166.6666666666668L499.7916666666667 441.0416666666668L774.1666666666667 166.6666666666668C782.2916666666667 158.5416666666668 792.9166666666666 154.375 803.5416666666666 154.375S824.7916666666667 158.5416666666668 832.9166666666665 166.6666666666668C849.1666666666666 182.9166666666668 849.1666666666666 209.375 832.9166666666665 225.625L558.5416666666665 500z" />
    <glyph glyph-name="caution_outline"
      unicode="&#xF114;"
      horiz-adv-x="1000" d="M500 854.1666666666667C695.2083333333333 854.1666666666667 854.1666666666666 695.2083333333334 854.1666666666666 500S695.2083333333333 145.8333333333334 500 145.8333333333334S145.8333333333333 304.7916666666668 145.8333333333333 500S304.7916666666667 854.1666666666667 500 854.1666666666667M500 916.6666666666666C269.7916666666667 916.6666666666666 83.3333333333333 730.2083333333334 83.3333333333333 500S269.7916666666667 83.3333333333334 500 83.3333333333334S916.6666666666666 269.7916666666668 916.6666666666666 500S730.2083333333333 916.6666666666666 500 916.6666666666666zM462.2916666666667 287.7083333333334A37.7083333333333 37.7083333333333 0 0 1 537.7083333333333 287.7083333333334A37.7083333333333 37.7083333333333 0 0 1 462.2916666666667 287.7083333333334M500 400.2083333333334C482.7083333333333 400.2083333333334 468.75 414.1666666666668 468.75 431.4583333333334V718.75C468.75 736.0416666666667 482.7083333333333 750 500 750S531.25 736.0416666666667 531.25 718.75V431.4583333333334C531.25 414.1666666666668 517.2916666666666 400.2083333333334 500 400.2083333333334z" />
    <glyph glyph-name="caution_outline-1"
      unicode="&#x63;&#x61;&#x75;&#x74;&#x69;&#x6F;&#x6E;&#x5F;&#x6F;&#x75;&#x74;&#x6C;&#x69;&#x6E;&#x65;"
      horiz-adv-x="1000" d="M500 854.1666666666667C695.2083333333333 854.1666666666667 854.1666666666666 695.2083333333334 854.1666666666666 500S695.2083333333333 145.8333333333334 500 145.8333333333334S145.8333333333333 304.7916666666668 145.8333333333333 500S304.7916666666667 854.1666666666667 500 854.1666666666667M500 916.6666666666666C269.7916666666667 916.6666666666666 83.3333333333333 730.2083333333334 83.3333333333333 500S269.7916666666667 83.3333333333334 500 83.3333333333334S916.6666666666666 269.7916666666668 916.6666666666666 500S730.2083333333333 916.6666666666666 500 916.6666666666666zM462.2916666666667 287.7083333333334A37.7083333333333 37.7083333333333 0 0 1 537.7083333333333 287.7083333333334A37.7083333333333 37.7083333333333 0 0 1 462.2916666666667 287.7083333333334M500 400.2083333333334C482.7083333333333 400.2083333333334 468.75 414.1666666666668 468.75 431.4583333333334V718.75C468.75 736.0416666666667 482.7083333333333 750 500 750S531.25 736.0416666666667 531.25 718.75V431.4583333333334C531.25 414.1666666666668 517.2916666666666 400.2083333333334 500 400.2083333333334z" />
    <glyph glyph-name="caution"
      unicode="&#xF115;"
      horiz-adv-x="1000" d="M500 916.6666666666666C269.7916666666667 916.6666666666666 83.3333333333333 730.2083333333334 83.3333333333333 500S269.7916666666667 83.3333333333334 500 83.3333333333334S916.6666666666666 269.7916666666668 916.6666666666666 500S730.2083333333333 916.6666666666666 500 916.6666666666666zM468.75 718.75C468.75 736.0416666666667 482.7083333333333 750 500 750S531.25 736.0416666666667 531.25 718.75V431.4583333333334C531.25 414.1666666666668 517.2916666666666 400.2083333333334 500 400.2083333333334S468.75 414.1666666666668 468.75 431.4583333333334zM500 250C479.1666666666666 250 462.2916666666667 266.8750000000001 462.2916666666667 287.7083333333334S479.1666666666666 325.4166666666669 500 325.4166666666669S537.7083333333333 308.5416666666668 537.7083333333333 287.7083333333334S520.8333333333333 250 500 250z" />
    <glyph glyph-name="caution-1"
      unicode="&#x63;&#x61;&#x75;&#x74;&#x69;&#x6F;&#x6E;"
      horiz-adv-x="1000" d="M500 916.6666666666666C269.7916666666667 916.6666666666666 83.3333333333333 730.2083333333334 83.3333333333333 500S269.7916666666667 83.3333333333334 500 83.3333333333334S916.6666666666666 269.7916666666668 916.6666666666666 500S730.2083333333333 916.6666666666666 500 916.6666666666666zM468.75 718.75C468.75 736.0416666666667 482.7083333333333 750 500 750S531.25 736.0416666666667 531.25 718.75V431.4583333333334C531.25 414.1666666666668 517.2916666666666 400.2083333333334 500 400.2083333333334S468.75 414.1666666666668 468.75 431.4583333333334zM500 250C479.1666666666666 250 462.2916666666667 266.8750000000001 462.2916666666667 287.7083333333334S479.1666666666666 325.4166666666669 500 325.4166666666669S537.7083333333333 308.5416666666668 537.7083333333333 287.7083333333334S520.8333333333333 250 500 250z" />
    <glyph glyph-name="checkbox"
      unicode="&#xF116;"
      horiz-adv-x="1000" d="M377.7083333333333 164.3750000000001L79.7916666666666 462.5000000000001C71.4583333333333 470.8333333333334 71.4583333333333 484.5833333333334 79.7916666666666 492.9166666666668L186.6666666666666 599.7916666666667C195 608.125 208.75 608.125 217.0833333333333 599.7916666666667L392.9166666666667 423.9583333333334L782.9166666666666 813.75C791.2499999999999 822.0833333333334 805 822.0833333333334 813.3333333333333 813.75L920.2083333333334 706.875C928.5416666666666 698.5416666666667 928.5416666666666 684.7916666666667 920.2083333333334 676.4583333333335L408.1250000000001 164.3750000000001C399.7916666666668 156.0416666666668 386.0416666666668 156.0416666666668 377.7083333333334 164.3750000000001z" />
    <glyph glyph-name="checkbox-1"
      unicode="&#x63;&#x68;&#x65;&#x63;&#x6B;&#x62;&#x6F;&#x78;"
      horiz-adv-x="1000" d="M377.7083333333333 164.3750000000001L79.7916666666666 462.5000000000001C71.4583333333333 470.8333333333334 71.4583333333333 484.5833333333334 79.7916666666666 492.9166666666668L186.6666666666666 599.7916666666667C195 608.125 208.75 608.125 217.0833333333333 599.7916666666667L392.9166666666667 423.9583333333334L782.9166666666666 813.75C791.2499999999999 822.0833333333334 805 822.0833333333334 813.3333333333333 813.75L920.2083333333334 706.875C928.5416666666666 698.5416666666667 928.5416666666666 684.7916666666667 920.2083333333334 676.4583333333335L408.1250000000001 164.3750000000001C399.7916666666668 156.0416666666668 386.0416666666668 156.0416666666668 377.7083333333334 164.3750000000001z" />
    <glyph glyph-name="clear_bold"
      unicode="&#xF117;"
      horiz-adv-x="1000" d="M588.3333333333333 500L838.9583333333333 750.625C863.3333333333333 775 863.3333333333333 814.5833333333334 838.9583333333333 838.9583333333334S774.9999999999999 863.3333333333334 750.6249999999999 838.9583333333334L499.9999999999998 588.3333333333334L249.3749999999999 838.9583333333334C224.9999999999999 863.3333333333334 185.4166666666665 863.3333333333334 161.0416666666665 838.9583333333334S136.6666666666665 775 161.0416666666665 750.625L411.6666666666665 500L161.0416666666665 249.375C136.6666666666665 225 136.6666666666665 185.4166666666666 161.0416666666665 161.0416666666666C173.3333333333332 148.7499999999999 189.1666666666665 142.7083333333333 205.2083333333331 142.7083333333333S237.2916666666665 148.7499999999999 249.3749999999998 161.0416666666666L499.9999999999998 411.6666666666667L750.6249999999999 161.0416666666666C762.9166666666665 148.7499999999999 778.7499999999999 142.7083333333333 794.7916666666664 142.7083333333333S826.8749999999998 148.7499999999999 838.958333333333 161.0416666666666C863.3333333333331 185.4166666666666 863.3333333333331 225 838.958333333333 249.375z" />
    <glyph glyph-name="clear_bold-1"
      unicode="&#x63;&#x6C;&#x65;&#x61;&#x72;&#x5F;&#x62;&#x6F;&#x6C;&#x64;"
      horiz-adv-x="1000" d="M588.3333333333333 500L838.9583333333333 750.625C863.3333333333333 775 863.3333333333333 814.5833333333334 838.9583333333333 838.9583333333334S774.9999999999999 863.3333333333334 750.6249999999999 838.9583333333334L499.9999999999998 588.3333333333334L249.3749999999999 838.9583333333334C224.9999999999999 863.3333333333334 185.4166666666665 863.3333333333334 161.0416666666665 838.9583333333334S136.6666666666665 775 161.0416666666665 750.625L411.6666666666665 500L161.0416666666665 249.375C136.6666666666665 225 136.6666666666665 185.4166666666666 161.0416666666665 161.0416666666666C173.3333333333332 148.7499999999999 189.1666666666665 142.7083333333333 205.2083333333331 142.7083333333333S237.2916666666665 148.7499999999999 249.3749999999998 161.0416666666666L499.9999999999998 411.6666666666667L750.6249999999999 161.0416666666666C762.9166666666665 148.7499999999999 778.7499999999999 142.7083333333333 794.7916666666664 142.7083333333333S826.8749999999998 148.7499999999999 838.958333333333 161.0416666666666C863.3333333333331 185.4166666666666 863.3333333333331 225 838.958333333333 249.375z" />
    <glyph glyph-name="clear"
      unicode="&#xF118;"
      horiz-adv-x="1000" d="M558.9583333333333 500L833.3333333333333 774.375C849.5833333333333 790.625 849.5833333333333 817.0833333333333 833.3333333333333 833.3333333333334S790.625 849.5833333333334 774.375 833.3333333333334L500 558.9583333333333L225.625 833.3333333333333C209.375 849.5833333333333 182.9166666666667 849.5833333333333 166.6666666666667 833.3333333333333S150.4166666666667 790.625 166.6666666666667 774.375L441.0416666666667 500L166.6666666666667 225.625C150.4166666666667 209.375 150.4166666666667 182.9166666666668 166.6666666666667 166.6666666666668C174.7916666666667 158.5416666666668 185.4166666666667 154.375 196.0416666666667 154.375S217.2916666666667 158.5416666666668 225.4166666666667 166.6666666666668L499.7916666666667 441.0416666666668L774.1666666666667 166.6666666666668C782.2916666666667 158.5416666666668 792.9166666666666 154.375 803.5416666666666 154.375S824.7916666666667 158.5416666666668 832.9166666666665 166.6666666666668C849.1666666666666 182.9166666666668 849.1666666666666 209.375 832.9166666666665 225.625L558.5416666666665 500z" />
    <glyph glyph-name="clear-1"
      unicode="&#x63;&#x6C;&#x65;&#x61;&#x72;"
      horiz-adv-x="1000" d="M558.9583333333333 500L833.3333333333333 774.375C849.5833333333333 790.625 849.5833333333333 817.0833333333333 833.3333333333333 833.3333333333334S790.625 849.5833333333334 774.375 833.3333333333334L500 558.9583333333333L225.625 833.3333333333333C209.375 849.5833333333333 182.9166666666667 849.5833333333333 166.6666666666667 833.3333333333333S150.4166666666667 790.625 166.6666666666667 774.375L441.0416666666667 500L166.6666666666667 225.625C150.4166666666667 209.375 150.4166666666667 182.9166666666668 166.6666666666667 166.6666666666668C174.7916666666667 158.5416666666668 185.4166666666667 154.375 196.0416666666667 154.375S217.2916666666667 158.5416666666668 225.4166666666667 166.6666666666668L499.7916666666667 441.0416666666668L774.1666666666667 166.6666666666668C782.2916666666667 158.5416666666668 792.9166666666666 154.375 803.5416666666666 154.375S824.7916666666667 158.5416666666668 832.9166666666665 166.6666666666668C849.1666666666666 182.9166666666668 849.1666666666666 209.375 832.9166666666665 225.625L558.5416666666665 500z" />
    <glyph glyph-name="close_bold"
      unicode="&#xF119;"
      horiz-adv-x="1000" d="M588.3333333333333 500L838.9583333333333 750.625C863.3333333333333 775 863.3333333333333 814.5833333333334 838.9583333333333 838.9583333333334S774.9999999999999 863.3333333333334 750.6249999999999 838.9583333333334L499.9999999999998 588.3333333333334L249.3749999999999 838.9583333333334C224.9999999999999 863.3333333333334 185.4166666666665 863.3333333333334 161.0416666666665 838.9583333333334S136.6666666666665 775 161.0416666666665 750.625L411.6666666666665 500L161.0416666666665 249.375C136.6666666666665 225 136.6666666666665 185.4166666666666 161.0416666666665 161.0416666666666C173.3333333333332 148.7499999999999 189.1666666666665 142.7083333333333 205.2083333333331 142.7083333333333S237.2916666666665 148.7499999999999 249.3749999999998 161.0416666666666L499.9999999999998 411.6666666666667L750.6249999999999 161.0416666666666C762.9166666666665 148.7499999999999 778.7499999999999 142.7083333333333 794.7916666666664 142.7083333333333S826.8749999999998 148.7499999999999 838.958333333333 161.0416666666666C863.3333333333331 185.4166666666666 863.3333333333331 225 838.958333333333 249.375z" />
    <glyph glyph-name="close_bold-1"
      unicode="&#x63;&#x6C;&#x6F;&#x73;&#x65;&#x5F;&#x62;&#x6F;&#x6C;&#x64;"
      horiz-adv-x="1000" d="M588.3333333333333 500L838.9583333333333 750.625C863.3333333333333 775 863.3333333333333 814.5833333333334 838.9583333333333 838.9583333333334S774.9999999999999 863.3333333333334 750.6249999999999 838.9583333333334L499.9999999999998 588.3333333333334L249.3749999999999 838.9583333333334C224.9999999999999 863.3333333333334 185.4166666666665 863.3333333333334 161.0416666666665 838.9583333333334S136.6666666666665 775 161.0416666666665 750.625L411.6666666666665 500L161.0416666666665 249.375C136.6666666666665 225 136.6666666666665 185.4166666666666 161.0416666666665 161.0416666666666C173.3333333333332 148.7499999999999 189.1666666666665 142.7083333333333 205.2083333333331 142.7083333333333S237.2916666666665 148.7499999999999 249.3749999999998 161.0416666666666L499.9999999999998 411.6666666666667L750.6249999999999 161.0416666666666C762.9166666666665 148.7499999999999 778.7499999999999 142.7083333333333 794.7916666666664 142.7083333333333S826.8749999999998 148.7499999999999 838.958333333333 161.0416666666666C863.3333333333331 185.4166666666666 863.3333333333331 225 838.958333333333 249.375z" />
    <glyph glyph-name="close"
      unicode="&#xF11A;"
      horiz-adv-x="1000" d="M558.9583333333333 500L833.3333333333333 774.375C849.5833333333333 790.625 849.5833333333333 817.0833333333333 833.3333333333333 833.3333333333334S790.625 849.5833333333334 774.375 833.3333333333334L500 558.9583333333333L225.625 833.3333333333333C209.375 849.5833333333333 182.9166666666667 849.5833333333333 166.6666666666667 833.3333333333333S150.4166666666667 790.625 166.6666666666667 774.375L441.0416666666667 500L166.6666666666667 225.625C150.4166666666667 209.375 150.4166666666667 182.9166666666668 166.6666666666667 166.6666666666668C174.7916666666667 158.5416666666668 185.4166666666667 154.375 196.0416666666667 154.375S217.2916666666667 158.5416666666668 225.4166666666667 166.6666666666668L499.7916666666667 441.0416666666668L774.1666666666667 166.6666666666668C782.2916666666667 158.5416666666668 792.9166666666666 154.375 803.5416666666666 154.375S824.7916666666667 158.5416666666668 832.9166666666665 166.6666666666668C849.1666666666666 182.9166666666668 849.1666666666666 209.375 832.9166666666665 225.625L558.5416666666665 500z" />
    <glyph glyph-name="close-1"
      unicode="&#x63;&#x6C;&#x6F;&#x73;&#x65;"
      horiz-adv-x="1000" d="M558.9583333333333 500L833.3333333333333 774.375C849.5833333333333 790.625 849.5833333333333 817.0833333333333 833.3333333333333 833.3333333333334S790.625 849.5833333333334 774.375 833.3333333333334L500 558.9583333333333L225.625 833.3333333333333C209.375 849.5833333333333 182.9166666666667 849.5833333333333 166.6666666666667 833.3333333333333S150.4166666666667 790.625 166.6666666666667 774.375L441.0416666666667 500L166.6666666666667 225.625C150.4166666666667 209.375 150.4166666666667 182.9166666666668 166.6666666666667 166.6666666666668C174.7916666666667 158.5416666666668 185.4166666666667 154.375 196.0416666666667 154.375S217.2916666666667 158.5416666666668 225.4166666666667 166.6666666666668L499.7916666666667 441.0416666666668L774.1666666666667 166.6666666666668C782.2916666666667 158.5416666666668 792.9166666666666 154.375 803.5416666666666 154.375S824.7916666666667 158.5416666666668 832.9166666666665 166.6666666666668C849.1666666666666 182.9166666666668 849.1666666666666 209.375 832.9166666666665 225.625L558.5416666666665 500z" />
    <glyph glyph-name="comment_outline"
      unicode="&#xF11B;"
      horiz-adv-x="1000" d="M271.0416666666667 107.7083333333334C267.0833333333333 107.7083333333334 262.9166666666667 108.5416666666667 259.1666666666667 110.0000000000001C247.5 114.7916666666666 239.7916666666667 126.2500000000001 239.7916666666667 138.9583333333334V240.4166666666668H188.3333333333333C125.8333333333333 240.4166666666668 74.7916666666666 291.25 74.7916666666666 353.9583333333334V723.3333333333333C74.7916666666666 785.8333333333333 125.625 836.875 188.3333333333333 836.875H811.6666666666666C874.1666666666666 836.875 925.2083333333334 786.0416666666666 925.2083333333334 723.3333333333333V353.9583333333334C925.2083333333334 291.4583333333333 874.3750000000001 240.4166666666668 811.6666666666666 240.4166666666668H416.6666666666667L293.125 116.875C287.0833333333333 110.8333333333334 279.1666666666667 107.7083333333334 271.0416666666667 107.7083333333334zM188.3333333333333 774.375C160.2083333333333 774.375 137.2916666666666 751.4583333333334 137.2916666666666 723.3333333333334V353.9583333333334C137.2916666666666 325.8333333333334 160.2083333333333 302.9166666666668 188.3333333333333 302.9166666666668H271.0416666666667C288.3333333333333 302.9166666666668 302.2916666666667 288.9583333333334 302.2916666666667 271.6666666666668V214.5833333333334L381.6666666666667 293.7499999999999C387.5 299.5833333333333 395.4166666666667 302.9166666666665 403.75 302.9166666666665H811.8749999999999C840 302.9166666666665 862.9166666666666 325.8333333333333 862.9166666666666 353.9583333333332V723.3333333333333C862.9166666666666 751.4583333333331 840 774.3749999999998 811.8749999999999 774.3749999999998z" />
    <glyph glyph-name="comment_outline-1"
      unicode="&#x63;&#x6F;&#x6D;&#x6D;&#x65;&#x6E;&#x74;&#x5F;&#x6F;&#x75;&#x74;&#x6C;&#x69;&#x6E;&#x65;"
      horiz-adv-x="1000" d="M271.0416666666667 107.7083333333334C267.0833333333333 107.7083333333334 262.9166666666667 108.5416666666667 259.1666666666667 110.0000000000001C247.5 114.7916666666666 239.7916666666667 126.2500000000001 239.7916666666667 138.9583333333334V240.4166666666668H188.3333333333333C125.8333333333333 240.4166666666668 74.7916666666666 291.25 74.7916666666666 353.9583333333334V723.3333333333333C74.7916666666666 785.8333333333333 125.625 836.875 188.3333333333333 836.875H811.6666666666666C874.1666666666666 836.875 925.2083333333334 786.0416666666666 925.2083333333334 723.3333333333333V353.9583333333334C925.2083333333334 291.4583333333333 874.3750000000001 240.4166666666668 811.6666666666666 240.4166666666668H416.6666666666667L293.125 116.875C287.0833333333333 110.8333333333334 279.1666666666667 107.7083333333334 271.0416666666667 107.7083333333334zM188.3333333333333 774.375C160.2083333333333 774.375 137.2916666666666 751.4583333333334 137.2916666666666 723.3333333333334V353.9583333333334C137.2916666666666 325.8333333333334 160.2083333333333 302.9166666666668 188.3333333333333 302.9166666666668H271.0416666666667C288.3333333333333 302.9166666666668 302.2916666666667 288.9583333333334 302.2916666666667 271.6666666666668V214.5833333333334L381.6666666666667 293.7499999999999C387.5 299.5833333333333 395.4166666666667 302.9166666666665 403.75 302.9166666666665H811.8749999999999C840 302.9166666666665 862.9166666666666 325.8333333333333 862.9166666666666 353.9583333333332V723.3333333333333C862.9166666666666 751.4583333333331 840 774.3749999999998 811.8749999999999 774.3749999999998z" />
    <glyph glyph-name="comment"
      unicode="&#xF11C;"
      horiz-adv-x="1000" d="M811.8749999999999 836.875H188.3333333333333C125.8333333333333 836.875 74.7916666666666 786.0416666666667 74.7916666666666 723.3333333333333V353.9583333333334C74.7916666666666 291.4583333333333 125.625 240.4166666666668 188.3333333333333 240.4166666666668H239.7916666666667V138.9583333333334C239.7916666666667 126.2500000000001 247.5 115.0000000000001 259.1666666666667 110.0000000000001C263.125 108.3333333333335 267.0833333333333 107.7083333333334 271.0416666666667 107.7083333333334C279.1666666666667 107.7083333333334 287.0833333333333 110.8333333333334 293.125 116.875L416.6666666666667 240.4166666666668H811.8749999999999C874.3749999999999 240.4166666666668 925.4166666666666 291.25 925.4166666666666 353.9583333333334V723.3333333333333C925.4166666666666 785.8333333333333 874.5833333333334 836.875 811.8749999999999 836.875z" />
    <glyph glyph-name="comment-1"
      unicode="&#x63;&#x6F;&#x6D;&#x6D;&#x65;&#x6E;&#x74;"
      horiz-adv-x="1000" d="M811.8749999999999 836.875H188.3333333333333C125.8333333333333 836.875 74.7916666666666 786.0416666666667 74.7916666666666 723.3333333333333V353.9583333333334C74.7916666666666 291.4583333333333 125.625 240.4166666666668 188.3333333333333 240.4166666666668H239.7916666666667V138.9583333333334C239.7916666666667 126.2500000000001 247.5 115.0000000000001 259.1666666666667 110.0000000000001C263.125 108.3333333333335 267.0833333333333 107.7083333333334 271.0416666666667 107.7083333333334C279.1666666666667 107.7083333333334 287.0833333333333 110.8333333333334 293.125 116.875L416.6666666666667 240.4166666666668H811.8749999999999C874.3749999999999 240.4166666666668 925.4166666666666 291.25 925.4166666666666 353.9583333333334V723.3333333333333C925.4166666666666 785.8333333333333 874.5833333333334 836.875 811.8749999999999 836.875z" />
    <glyph glyph-name="connection"
      unicode="&#xF11D;"
      horiz-adv-x="1000" d="M336.25 468.3333333333334C318.9583333333333 468.3333333333334 305 482.2916666666667 305 499.5833333333334S318.9583333333333 530.8333333333334 336.25 530.8333333333334L662.5 531.6666666666667C679.7916666666666 531.6666666666667 693.7499999999999 517.7083333333333 693.7499999999999 500.4166666666667S679.7916666666665 469.1666666666667 662.4999999999999 469.1666666666667zM457.0833333333333 333.9583333333334C457.0833333333333 351.25 443.125 365.2083333333334 425.8333333333333 365.2083333333334H293.3333333333334C218.9583333333334 365.2083333333334 158.5416666666667 425.625 158.5416666666667 500S218.9583333333334 634.7916666666667 293.3333333333334 634.7916666666667H425.8333333333333C443.125 634.7916666666667 457.0833333333333 648.75 457.0833333333333 666.0416666666667S443.125 697.2916666666667 425.8333333333333 697.2916666666667H293.3333333333334C184.5833333333334 697.2916666666667 96.0416666666667 608.75 96.0416666666667 500S184.5833333333334 302.7083333333334 293.3333333333334 302.7083333333334H425.8333333333333C443.125 302.7083333333334 457.0833333333333 316.6666666666668 457.0833333333333 333.9583333333334zM903.9583333333331 500C903.9583333333331 608.75 815.4166666666666 697.2916666666667 706.6666666666666 697.2916666666667H574.1666666666666C556.875 697.2916666666667 542.9166666666666 683.3333333333334 542.9166666666666 666.0416666666667S556.875 634.7916666666667 574.1666666666666 634.7916666666667H706.6666666666666C781.0416666666666 634.7916666666667 841.4583333333333 574.375 841.4583333333333 500S781.0416666666666 365.2083333333334 706.6666666666666 365.2083333333334H574.1666666666666C556.875 365.2083333333334 542.9166666666666 351.25 542.9166666666666 333.9583333333334S556.875 302.7083333333334 574.1666666666666 302.7083333333334H706.6666666666666C815.4166666666666 302.7083333333334 903.9583333333331 391.2500000000001 903.9583333333331 500z" />
    <glyph glyph-name="connection-1"
      unicode="&#x63;&#x6F;&#x6E;&#x6E;&#x65;&#x63;&#x74;&#x69;&#x6F;&#x6E;"
      horiz-adv-x="1000" d="M336.25 468.3333333333334C318.9583333333333 468.3333333333334 305 482.2916666666667 305 499.5833333333334S318.9583333333333 530.8333333333334 336.25 530.8333333333334L662.5 531.6666666666667C679.7916666666666 531.6666666666667 693.7499999999999 517.7083333333333 693.7499999999999 500.4166666666667S679.7916666666665 469.1666666666667 662.4999999999999 469.1666666666667zM457.0833333333333 333.9583333333334C457.0833333333333 351.25 443.125 365.2083333333334 425.8333333333333 365.2083333333334H293.3333333333334C218.9583333333334 365.2083333333334 158.5416666666667 425.625 158.5416666666667 500S218.9583333333334 634.7916666666667 293.3333333333334 634.7916666666667H425.8333333333333C443.125 634.7916666666667 457.0833333333333 648.75 457.0833333333333 666.0416666666667S443.125 697.2916666666667 425.8333333333333 697.2916666666667H293.3333333333334C184.5833333333334 697.2916666666667 96.0416666666667 608.75 96.0416666666667 500S184.5833333333334 302.7083333333334 293.3333333333334 302.7083333333334H425.8333333333333C443.125 302.7083333333334 457.0833333333333 316.6666666666668 457.0833333333333 333.9583333333334zM903.9583333333331 500C903.9583333333331 608.75 815.4166666666666 697.2916666666667 706.6666666666666 697.2916666666667H574.1666666666666C556.875 697.2916666666667 542.9166666666666 683.3333333333334 542.9166666666666 666.0416666666667S556.875 634.7916666666667 574.1666666666666 634.7916666666667H706.6666666666666C781.0416666666666 634.7916666666667 841.4583333333333 574.375 841.4583333333333 500S781.0416666666666 365.2083333333334 706.6666666666666 365.2083333333334H574.1666666666666C556.875 365.2083333333334 542.9166666666666 351.25 542.9166666666666 333.9583333333334S556.875 302.7083333333334 574.1666666666666 302.7083333333334H706.6666666666666C815.4166666666666 302.7083333333334 903.9583333333331 391.2500000000001 903.9583333333331 500z" />
    <glyph glyph-name="copy"
      unicode="&#xF11E;"
      horiz-adv-x="1000" d="M149.1666666666667 255.2083333333334C131.875 255.2083333333334 117.9166666666667 269.1666666666668 117.9166666666667 286.4583333333334V875C117.9166666666667 892.2916666666666 131.875 906.25 149.1666666666667 906.25H663.9583333333334C681.25 906.25 695.2083333333334 892.2916666666666 695.2083333333334 875S681.25 843.75 663.9583333333334 843.75H180.4166666666668V286.2499999999999C180.4166666666668 268.9583333333333 166.4583333333334 254.9999999999999 149.1666666666668 254.9999999999999zM431.0416666666667 530.4166666666667H540.2083333333333C557.4999999999999 530.4166666666667 571.4583333333333 544.375 571.4583333333333 561.6666666666667S557.4999999999999 592.9166666666667 540.2083333333333 592.9166666666667H431.0416666666666C413.75 592.9166666666667 399.7916666666666 578.9583333333333 399.7916666666666 561.6666666666667S413.75 530.4166666666667 431.0416666666666 530.4166666666667zM706.6666666666666 455.2083333333334H431.2500000000001C413.9583333333335 455.2083333333334 400.0000000000001 441.25 400.0000000000001 423.9583333333334S413.9583333333335 392.7083333333334 431.2500000000001 392.7083333333334H706.6666666666666C723.9583333333333 392.7083333333334 737.9166666666666 406.6666666666668 737.9166666666666 423.9583333333334S723.9583333333333 455.2083333333334 706.6666666666666 455.2083333333334zM706.6666666666666 317.7083333333334H431.2500000000001C413.9583333333335 317.7083333333334 400.0000000000001 303.75 400.0000000000001 286.4583333333334S413.9583333333335 255.2083333333334 431.2500000000001 255.2083333333334H706.6666666666666C723.9583333333333 255.2083333333334 737.9166666666666 269.1666666666668 737.9166666666666 286.4583333333334S723.9583333333333 317.7083333333334 706.6666666666666 317.7083333333334zM878.75 570.8333333333333S878.75 571.4583333333334 878.5416666666666 571.6666666666666C877.0833333333333 575.4166666666666 874.7916666666666 578.75 872.0833333333333 581.6666666666666L698.1249999999999 760.2083333333333C695.2083333333333 763.125 691.875 765.625 687.9166666666665 767.0833333333333C684.3749999999999 768.5416666666666 680.6249999999999 769.375 676.6666666666665 769.375C676.6666666666665 769.375 676.2499999999999 769.375 676.0416666666665 769.375H288.1249999999999C270.8333333333332 769.375 256.8749999999999 755.4166666666666 256.8749999999999 738.125V124.7916666666666C256.8749999999999 107.5 270.8333333333332 93.5416666666666 288.1249999999999 93.5416666666666H849.3749999999999C866.6666666666665 93.5416666666666 880.6249999999999 107.5 880.6249999999999 124.7916666666666V560C880.6249999999999 563.75 879.7916666666665 567.5 878.5416666666665 570.8333333333333zM319.375 156.25V707.0833333333334H644.1666666666666V560C644.1666666666666 542.7083333333335 658.125 528.75 675.4166666666666 528.75H818.125V156.25z" />
    </font>
</defs>
</svg>
